> 蔡琴<金声演奏厅>演唱会2007【18.3G】1080P蓝光原盘
歌 手 : 蔡琴
主音唯一码 : lgych-00001
视频大小 : 18.3G主音网微信 : tao18074625335
创建时间 : 2017-03-17主音网QQ客服 :2268809533
视频目录 : 中国台湾歌手
主音网邮箱 :bimuyu#zhuyin.com(请把#改成@)
主音唯一码
lgych-00001
文件大小
18.3G
百度网盘下载
提取码
见解压密码
文件解压密码
蔡琴<金声演奏厅>演唱会2007【18.3G】1080P蓝光原盘 视频截图










蔡琴<金声演奏厅>演唱会2007【18.3G】1080P蓝光原盘 视频剧情截图
蔡琴<金声演奏厅>演唱会2007【18.3G】1080P蓝光原盘 演唱会曲目介绍
1. 蔡琴《天天天蓝》
2. 蔡琴《祝我幸福》
3. 蔡琴《用心良苦》
4. 蔡琴《其实你不懂我的心》
5. 蔡琴《为了爱梦一生》
6. 蔡琴《只有分离》
7. 蔡琴《吻别》
8. 蔡琴《一场游戏一场梦》
9. 蔡琴《假如我是真的》
10. 蔡琴《点亮霓虹灯》
11. 蔡琴《海上花》
主音唯一码
lgych-00001
文件大小
18.3G
百度网盘下载
提取码
见解压密码
文件解压密码
蔡琴<金声演奏厅>演唱会2007【18.3G】1080P蓝光原盘 演唱会视频参数信息

演唱会参数信息

DISC INFO:

Disc Title:     蔡琴<金声演奏厅>演唱会2007【18G】1080P蓝光原盘
Disc Size:      19,748,118,556 bytes
Protection:     AACS
BD-Java:        No
BDInfo:         0.5.8

PLAYLIST REPORT:

Name:                   00001.MPLS
Length:                 0:42:42.593 (h:m:s.ms)
Size:                   12,799,506,432 bytes
Total Bitrate:          39.96 Mbps

VIDEO:

Codec                   Bitrate             Description     
-----                   -------             -----------     
MPEG-4 AVC Video        22844 kbps          1080i / 29.970 fps / 16:9 / High Profile 4.1

AUDIO:

Codec                           Language        Bitrate         Description     
-----                           --------        -------         -----------     
LPCM Audio                      Chinese         4608 kbps       5.1 / 48 kHz / 4608 kbps / 16-bit
DTS-HD Master Audio             Chinese         8618 kbps       5.1-ES / 96 kHz / 8618 kbps / 24-bit (DTS Core: 5.1-ES / 48 kHz / 1509 kbps / 24-bit)
LPCM Audio                      Chinese         1536 kbps       2.0 / 48 kHz / 1536 kbps / 16-bit

SUBTITLES:

Codec                           Language        Bitrate         Description     
-----                           --------        -------         -----------     
Presentation Graphics           Chinese         24.791 kbps                     
Presentation Graphics           Chinese         22.699 kbps                     

FILES:

Name            Time In         Length          Size            Total Bitrate   
----            -------         ------          ----            -------------   
00003.M2TS      0:00:00.000     0:01:25.418     426,584,064     39,952         
00004.M2TS      0:01:25.418     0:04:19.058     1,294,012,416   39,960         
00005.M2TS      0:05:44.477     0:04:06.946     1,222,748,160   39,612         
00006.M2TS      0:09:51.424     0:03:26.306     1,034,428,416   40,112         
00007.M2TS      0:13:17.730     0:04:11.618     1,260,017,664   40,061         
00008.M2TS      0:17:29.348     0:03:44.357     1,125,371,904   40,128         
00009.M2TS      0:21:13.705     0:04:08.748     1,242,058,752   39,946         
00010.M2TS      0:25:22.454     0:04:12.986     1,284,440,064   40,617         
00011.M2TS      0:29:35.440     0:03:36.549     1,084,846,080   40,077         
00012.M2TS      0:33:11.989     0:04:18.825     1,302,534,144   40,260         
00013.M2TS      0:37:30.815     0:05:11.778     1,522,464,768   39,065         

为您推荐 蔡琴 相关的演唱会视频
主音唯一码
lgych-00001
文件大小
18.3G
百度网盘下载
提取码
见解压密码
文件解压密码
最新天气预报