> 吴雨霏<Kary Ng The Present Concert>香港红馆演唱会2013【34.9G】1080P蓝光原盘.港版
歌 手 : 吴雨霏,侧田
主音唯一码 : lgych-00017
视频大小 : 34.9G主音网微信 : tao18074625335
创建时间 : 2017-03-17主音网QQ客服 :2268809533
视频目录 : 蓝光演唱会
主音网邮箱 :bimuyu#zhuyin.com(请把#改成@)
主音唯一码
lgych-00017
文件大小
34.9G
百度网盘下载
提取码
见解压密码
文件解压密码
吴雨霏<Kary Ng The Present Concert>香港红馆演唱会2013【34.9G】1080P蓝光原盘.港版 视频截图












吴雨霏<Kary Ng The Present Concert>香港红馆演唱会2013【34.9G】1080P蓝光原盘.港版 视频剧情截图
吴雨霏<Kary Ng The Present Concert>香港红馆演唱会2013【34.9G】1080P蓝光原盘.港版 演唱会曲目介绍

演唱会曲目介绍

01. Control
02. 狠狠
03. 归宿
04. 逼得太紧
05. 爱你变成恨你
06. Here We Are
07. 绝配
08. 告白
09. 人非草木
10. 明知做戏
11. 分手要狠
12. The Present (bread n butter主题曲)
13. 暂借问
14. 怕
15. 座右铭
16. 鸡蛋爱石头
17. 二十世纪少年
18. 最后一秒钟
19. 杀她死
20. 潮爆
21. 我话事
22. 一生何求
23 .爱是最大权利
24. 马戏团之恋
25. 我本人
Bonus Tracks
26. 山歌 (吴雨霏 + 侧田)
主音唯一码
lgych-00017
文件大小
34.9G
百度网盘下载
提取码
见解压密码
文件解压密码
吴雨霏<Kary Ng The Present Concert>香港红馆演唱会2013【34.9G】1080P蓝光原盘.港版 演唱会视频参数信息

演唱会参数信息

DISC INFO:

Disc Title:     吴雨霏香港红馆演唱会2013【34.9G】1080P蓝光原盘
Disc Size:      37,486,318,130 bytes
Protection:     AACS
BD-Java:        No
BDInfo:         0.5.8

PLAYLIST REPORT:

Name:                   00001.MPLS
Length:                 1:58:42.348 (h:m:s.ms)
Size:                   36,848,431,104 bytes
Total Bitrate:          41.39 Mbps

VIDEO:

Codec                   Bitrate             Description     
-----                   -------             -----------     
MPEG-4 AVC Video        27990 kbps          1080i / 29.970 fps / 16:9 / High Profile 4.1

AUDIO:

Codec                           Language        Bitrate         Description     
-----                           --------        -------         -----------     
DTS-HD Master Audio             Chinese         5927 kbps       5.1 / 96 kHz / 5927 kbps / 24-bit (DTS Core: 6.1 / 48 kHz / 1509 kbps / 24-bit)
Dolby Digital Audio             Chinese         640 kbps        5.1 / 48 kHz / 640 kbps
LPCM Audio                      Chinese         4608 kbps       2.0 / 96 kHz / 4608 kbps / 24-bit

SUBTITLES:

Codec                           Language        Bitrate         Description     
-----                           --------        -------         -----------     
Presentation Graphics           Chinese         22.070 kbps                     
Presentation Graphics           Chinese         20.163 kbps                     

FILES:

Name            Time In         Length          Size            Total Bitrate   
----            -------         ------          ----            -------------   
00003.M2TS      0:00:00.000     1:07:26.208     20,858,836,992  41,241         
00004.M2TS      1:07:26.208     0:47:45.529     14,906,634,240  41,616         
00005.M2TS      1:55:11.738     0:03:30.610     1,082,959,872   41,136         

为您推荐 吴雨霏,侧田 相关的演唱会视频
主音唯一码
lgych-00017
文件大小
34.9G
百度网盘下载
提取码
见解压密码
文件解压密码
最新天气预报