> 陈奕迅<Eason Chan DUO>香港红馆演唱会2010【63.42G】1080P蓝光原盘.港版双碟
歌 手 : 陈奕迅
主音唯一码 : lgych-00072
视频大小 : 63.42G主音网微信 : tao18074625335
创建时间 : 2017-03-20主音网QQ客服 :2268809533
视频目录 : 中国香港歌手
主音网邮箱 :bimuyu#zhuyin.com(请把#改成@)
主音唯一码
lgych-00072
文件大小
63.42G
百度网盘下载
提取码
见解压密码
文件解压密码
陈奕迅<Eason Chan DUO>香港红馆演唱会2010【63.42G】1080P蓝光原盘.港版双碟 视频截图
















陈奕迅<Eason Chan DUO>香港红馆演唱会2010【63.42G】1080P蓝光原盘.港版双碟 视频剧情截图
陈奕迅<Eason Chan DUO>香港红馆演唱会2010【63.42G】1080P蓝光原盘.港版双碟 演唱会曲目介绍

演唱会曲目介绍:

1. 陈奕迅《今天等我来》
2. 陈奕迅《好歌献给你》
3. 陈奕迅《落花流水》
4. 陈奕迅《喜帖街》
5. 陈奕迅《七百年后》
6. 陈奕迅《约定》
7. 陈奕迅《寂寞夜晚》
8. 陈奕迅《浮夸》
9. 陈奕迅《禁色》
10. 陈奕迅《无人之境》
11. 陈奕迅《破晓》
12. 陈奕迅《夕阳无限好》
13. 陈奕迅《人车志》
14. 陈奕迅《裙下之臣》
15. 陈奕迅《陀飞轮》
16. 陈奕迅《沙龙》
17. 陈奕迅《葡萄成熟时》
18. 陈奕迅《热辣辣》
19. 陈奕迅《反斗星》
20. 陈奕迅《头发乱了》
21. 陈奕迅《好戏在后头》
22. 陈奕迅《芳华绝代》
23. 陈奕迅《不来也不去》
24. 陈奕迅《富士山下》
25. 陈奕迅《与我常在》
26. 陈奕迅《我的快乐时代》
27. 陈奕迅《歌颂》
28. 陈奕迅《PG家长指引》
29. 陈奕迅《那一夜有没有说》
30. 陈奕迅《反高潮》
31. 陈奕迅《一丝不挂》
32. 陈奕迅《单车》
33. 陈奕迅《等》
34. 陈奕迅《Mr-Lonely》
35. 陈奕迅《我什么都没有》
36. 陈奕迅《抱拥这分钟》
37. 陈奕迅《我的世界末日》
38. 陈奕迅《每一个明天》
39. 陈奕迅《明年今日》
40. 陈奕迅《欢乐时刻》
41. 陈奕迅《Every time we say goodbye》
主音唯一码
lgych-00072
文件大小
63.42G
百度网盘下载
提取码
见解压密码
文件解压密码
陈奕迅<Eason Chan DUO>香港红馆演唱会2010【63.42G】1080P蓝光原盘.港版双碟 演唱会视频参数信息

演唱会参数信息:

DISC INFO:

Disc Title:     陈奕迅香港红馆演唱会2010【63.42G】1080P蓝光原盘.DISC.1
Disc Size:      49,371,904,057 bytes
Protection:     AACS
BD-Java:        No
BDInfo:         0.5.8

PLAYLIST REPORT:

Name:                   00001.MPLS
Length:                 2:25:59.851 (h:m:s.ms)
Size:                   48,408,041,472 bytes
Total Bitrate:          44.21 Mbps

VIDEO:

Codec                   Bitrate             Description     
-----                   -------             -----------     
MPEG-4 AVC Video        27664 kbps          1080i / 29.970 fps / 16:9 / High Profile 4.1

AUDIO:

Codec                           Language        Bitrate         Description     
-----                           --------        -------         -----------     
LPCM Audio                      Chinese         4608 kbps       5.1 / 48 kHz / 4608 kbps / 16-bit
DTS-HD Master Audio             Chinese         8716 kbps       5.1 / 96 kHz / 8716 kbps / 24-bit (DTS Core: 6.1 / 48 kHz / 1509 kbps / 24-bit)
Dolby Digital EX Audio          Chinese         640 kbps        5.1-EX / 48 kHz / 640 kbps / DN -4dB
Dolby Digital Audio             Chinese         192 kbps        2.0 / 48 kHz / 192 kbps / DN -4dB

SUBTITLES:

Codec                           Language        Bitrate         Description     
-----                           --------        -------         -----------     
Presentation Graphics           Chinese         26.353 kbps                     
Presentation Graphics           Chinese         23.594 kbps                     

FILES:

Name            Time In         Length          Size            Total Bitrate   
----            -------         ------          ----            -------------   
00003.M2TS      0:00:00.000     0:54:49.452     18,291,382,272  44,485         
00004.M2TS      0:54:49.452     1:06:03.559     21,760,591,872  43,921         
00005.M2TS      2:00:53.012     0:25:06.838     8,356,067,328   44,363         


DISC INFO:

Disc Title:     陈奕迅香港红馆演唱会2010【63.42G】1080P蓝光原盘.DISC.2
Disc Size:      18,728,965,239 bytes
Protection:     AACS
BD-Java:        No
BDInfo:         0.5.8

PLAYLIST REPORT:

Name:                   00001.MPLS
Length:                 0:48:59.603 (h:m:s.ms)
Size:   &nnbsp;               16,257,214,464 bytes
Total Bitrate:          44.24 Mbps

VIDEO:

Codec                   Bitrate             Description     
-----                   -------             -----------     
MPEG-4 AVC Video        27995 kbps          1080i / 29.970 fps / 16:9 / High Profile 4.1

AUDIO:

Codec                           Language        Bitrate         Description     
-----                           --------        -------         -----------     
LPCM Audio                      Chinese         4608 kbps       5.1 / 48 kHz / 4608 kbps / 16-bit
DTS-HD Master Audio             Chinese         8427 kbps       5.1 / 96 kHz / 8427 kbps / 24-bit (DTS Core: 6.1 / 48 kHz / 1509 kbps / 24-bit)
Dolby Digital EX Audio          Chinese         640 kbps        5.1-EX / 48 kHz / 640 kbps / DN -4dB
Dolby Digital Audio             Chinese         192 kbps        2.0 / 48 kHz / 192 kbps / DN -4dB

SUBTITLES:

Codec                           Language        Bitrate         Description     
-----                           --------        -------         -----------     
Presentation Graphics           Chinese         21.489 kbps                     
Presentation Graphics           Chinese         19.518 kbps                     

FILES:

Name            Time In         Length          Size            Total Bitrate   
----            -------         ------          ----            -------------   
00003.M2TS      0:00:00.000     0:48:59.603     16,257,214,464  44,243         

为您推荐 陈奕迅 相关的演唱会视频
主音唯一码
lgych-00072
文件大小
63.42G
百度网盘下载
提取码
见解压密码
文件解压密码
最新天气预报