> 谭咏麟<爱的根源 Reborn>演唱会2008【16.8G】1080P蓝光原盘
歌 手 : 谭咏麟
主音唯一码 : lgych-00083
视频大小 : 16.8G主音网微信 : tao18074625335
创建时间 : 2017-03-20主音网QQ客服 :2268809533
视频目录 : 蓝光演唱会
主音网邮箱 :bimuyu#zhuyin.com(请把#改成@)
主音唯一码
lgych-00083
文件大小
16.8G
百度网盘下载
提取码
见解压密码
文件解压密码
谭咏麟<爱的根源 Reborn>演唱会2008【16.8G】1080P蓝光原盘 视频截图










谭咏麟<爱的根源 Reborn>演唱会2008【16.8G】1080P蓝光原盘 视频剧情截图
谭咏麟<爱的根源 Reborn>演唱会2008【16.8G】1080P蓝光原盘 演唱会曲目介绍

演唱会曲目介绍:

1. 谭咏麟《爱的根源》
2. 谭咏麟《夏日寒风》
3. 谭咏麟《都市恋歌》
4. 谭咏麟《爱在深秋》
5. 谭咏麟《我爱雀斑》
6. 谭咏麟《谁可改变》
7. 谭咏麟《捕风的汉子》
8. 谭咏麟《酒红色的心》
9. 谭咏麟《欠了你》
10. 谭咏麟《触电舞》
主音唯一码
lgych-00083
文件大小
16.8G
百度网盘下载
提取码
见解压密码
文件解压密码
谭咏麟<爱的根源 Reborn>演唱会2008【16.8G】1080P蓝光原盘 演唱会视频参数信息

演唱会参数信息:

DISC INFO:

Disc Title:     谭咏麟<爱的根源 Reborn>演唱会2008【16.8G】1080P蓝光原盘
Disc Size:      18,114,290,808 bytes
Protection:     AACS
BD-Java:        No
BDInfo:         0.5.8

PLAYLIST REPORT:

Name:                   00001.MPLS
Length:                 0:43:36.980 (h:m:s.ms)
Size:                   13,236,670,464 bytes
Total Bitrate:          40.46 Mbps

VIDEO:

Codec                   Bitrate             Description     
-----                   -------             -----------     
MPEG-4 AVC Video        23463 kbps          1080i / 29.970 fps / 16:9 / High Profile 4.1

AUDIO:

Codec                           Language        Bitrate         Description     
-----                           --------        -------         -----------     
LPCM Audio                      Chinese         4608 kbps       5.1 / 48 kHz / 4608 kbps / 16-bit
DTS-HD Master Audio             Chinese         8077 kbps       5.1 / 96 kHz / 8077 kbps / 24-bit (DTS Core: 6.1 / 48 kHz / 1509 kbps / 24-bit)
LPCM Audio                      Chinese         1536 kbps       2.0 / 48 kHz / 1536 kbps / 16-bit
Dolby Digital Audio             Chinese         384 kbps        2.0 / 48 kHz / 384 kbps / DN -4dB

SUBTITLES:

Codec                           Language        Bitrate         Description     
-----                           --------        -------         -----------     
Presentation Graphics           Chinese         21.168 kbps                     
Presentation Graphics           Chinese         19.099 kbps                     

FILES:

Name            Time In         Length          Size            Total Bitrate   
----            -------         ------          ----            -------------   
00003.M2TS      0:00:00.000     0:04:26.265     1,349,695,488   40,552         
00004.M2TS      0:04:26.265     0:04:36.776     1,440,190,464   41,628         
00005.M2TS      0:09:03.042     0:03:49.062     1,166,665,728   40,746         
00006.M2TS      0:12:52.104     0:04:14.254     1,290,522,624   40,606         
00007.M2TS      0:17:06.358     0:03:55.001     1,201,717,248   40,909         
00008.M2TS      0:21:01.360     0:04:14.754     1,307,418,624   41,057         
00009.M2TS      0:25:16.114     0:04:12.352     1,304,758,272   41,363         
00010.M2TS      0:29:28.466     0:04:13.086     1,306,404,864   41,295         
00011.M2TS      0:33:41.552     0:03:39.552     1,126,244,352   41,038         
00012.M2TS      0:37:21.105     0:04:00.306     1,239,797,760   41,274         
00013.M2TS      0:41:21.412     0:02:15.568     503,255,040     29,697         
为您推荐 谭咏麟 相关的演唱会视频
主音唯一码
lgych-00083
文件大小
16.8G
百度网盘下载
提取码
见解压密码
文件解压密码
最新天气预报