> 容祖儿<Number 6>香港红馆演唱会2010.带KTV字幕【38.52G】1080P蓝光原盘
歌 手 : 容祖儿
主音唯一码 : lgych-00092
视频大小 : 38.52G主音网微信 : tao18074625335
创建时间 : 2017-03-20主音网QQ客服 :2268809533
视频目录 : 蓝光演唱会
主音网邮箱 :bimuyu#zhuyin.com(请把#改成@)
主音唯一码
lgych-00092
文件大小
38.52G
百度网盘下载
提取码
见解压密码
文件解压密码
容祖儿<Number 6>香港红馆演唱会2010.带KTV字幕【38.52G】1080P蓝光原盘 视频截图










容祖儿<Number 6>香港红馆演唱会2010.带KTV字幕【38.52G】1080P蓝光原盘 视频剧情截图
容祖儿<Number 6>香港红馆演唱会2010.带KTV字幕【38.52G】1080P蓝光原盘 演唱会曲目介绍

演唱会曲目介绍:

01. 逃
02. 跑步机上
03. 怯
04. 谁来爱我
05. 16号爱人
06. 世界小姐
07. 我所知的两三事
08. 全身暑假
09. 流泪眼望流泪眼/ 劳斯 莱斯
10. 天之骄女
11. 蛇
12. 穿花蝴蝶
13. 桃色冒险
14. 飞
15. 习惯失恋
16. 痛爱
17. 破相
18. Scream
19. 梦路
20. 喜喜
21. 未知
22. 隆重登场
23. 空港
24. 逃避你
25. 抱抱
26. 旧日回忆的山丘
27. 搜神记
28. 心淡
29. 越唱越强
主音唯一码
lgych-00092
文件大小
38.52G
百度网盘下载
提取码
见解压密码
文件解压密码
容祖儿<Number 6>香港红馆演唱会2010.带KTV字幕【38.52G】1080P蓝光原盘 演唱会视频参数信息

演唱会参数信息:

DISC INFO:

Disc Title:     容祖儿香港红馆演唱会2010.带KTV字幕【38.52G】1080P蓝光原盘
Disc Size:      41,359,105,845 bytes
Protection:     AACS
BD-Java:        No
BDInfo:         0.5.8

PLAYLIST REPORT:

Name:                   00003.MPLS
Length:                 2:26:01.853 (h:m:s.ms)
Size:                   41,060,278,272 bytes
Total Bitrate:          37.49 Mbps

VIDEO:

Codec                   Bitrate             Description     
-----                   -------             -----------     
MPEG-4 AVC Video        18999 kbps          1080i / 29.970 fps / 16:9 / High Profile 4.1

AUDIO:

Codec                           Language        Bitrate         Description     
-----                           --------        -------         -----------     
LPCM Audio                      Chinese         4608 kbps       5.1 / 48 kHz / 4608 kbps / 16-bit
DTS-HD Master Audio             Chinese         6715 kbps       5.1 / 96 kHz / 6715 kbps / 24-bit (DTS Core: 5.1 / 48 kHz / 768 kbps / 24-bit)
Dolby Digital Audio             Chinese         640 kbps        5.1 / 48 kHz / 640 kbps
Dolby Digital Audio             Chinese         192 kbps        2.0 / 48 kHz / 192 kbps

SUBTITLES:

Codec                           Language        Bitrate         Description     
-----                           --------        -------         -----------     
Presentation Graphics           Chinese         21.844 kbps                     
Presentation Graphics           Chinese         4270.395 kbps                  

FILES:

Name            Time In         Length          Size            Total Bitrate   
----            -------         ------          ----            -------------   
00006.M2TS      0:00:00.000     0:59:16.419     16,992,983,040  38,225         
00003.M2TS      0:59:16.419     0:41:42.700     11,624,441,856  37,158         
00004.M2TS      1:40:59.119     0:45:02.733     12,442,853,376  36,830         

为您推荐 容祖儿 相关的演唱会视频
主音唯一码
lgych-00092
文件大小
38.52G
百度网盘下载
提取码
见解压密码
文件解压密码
最新天气预报