> 容祖儿<Joey And Joey>新城音乐会香港演唱会2011【36.33G】1080P蓝光原盘
歌 手 : 容祖儿
主音唯一码 : lgych-00099
视频大小 : 36.33G主音网微信 : tao18074625335
创建时间 : 2017-03-20主音网QQ客服 :2268809533
视频目录 : 中国香港演唱会
主音网邮箱 :bimuyu#zhuyin.com(请把#改成@)
主音唯一码
lgych-00099
文件大小
36.33G
百度网盘下载
提取码
见解压密码
文件解压密码
容祖儿<Joey And Joey>新城音乐会香港演唱会2011【36.33G】1080P蓝光原盘 视频截图










容祖儿<Joey And Joey>新城音乐会香港演唱会2011【36.33G】1080P蓝光原盘 视频剧情截图
容祖儿<Joey And Joey>新城音乐会香港演唱会2011【36.33G】1080P蓝光原盘 演唱会曲目介绍

演唱会曲目介绍

01. 星图
02. 马赛克
03. 心花怒放
04. 蜉蝣
05. 敬请留步
06. 啜泣
07. 未知
08. 垂涎
09. 山口百惠
10. 烟霞
11. 飞
12. 跑步机上
13. 沙堡垒
14. 墙纸
15. 还未
16. 疒孟
17. Be Ture
18. 爱怪物的你
19. 习惯失恋
20. 恋人未满
21. 黄色大门
22. 花千树
23. 澎湃
24. Lucky Star
25. 13点
26. 痛爱
27. 空港
主音唯一码
lgych-00099
文件大小
36.33G
百度网盘下载
提取码
见解压密码
文件解压密码
容祖儿<Joey And Joey>新城音乐会香港演唱会2011【36.33G】1080P蓝光原盘 演唱会视频参数信息

演唱会参数信息

DISC INFO:

Disc Title:    容祖儿新城音乐会香港演唱会2011【36.33G】1080P蓝光原盘
Disc Size:      39,004,526,194 bytes
Protection:     AACS
BD-Java:        No
BDInfo:         0.5.8

PLAYLIST REPORT:

Name:                   00001.MPLS
Length:                 2:12:07.385 (h:m:s.ms)
Size:                   38,735,400,960 bytes
Total Bitrate:          39.09 Mbps

VIDEO:

Codec                   Bitrate             Description     
-----                   -------             -----------     
MPEG-4 AVC Video        20996 kbps          1080i / 29.970 fps / 16:9 / High Profile 4.1

AUDIO:

Codec                           Language        Bitrate         Description     
-----                    &nnbsp;      --------        -------         -----------     
LPCM Audio                      Chinese         4608 kbps       5.1 / 48 kHz / 4608 kbps / 16-bit
DTS-HD Master Audio             Chinese         6773 kbps       5.1 / 96 kHz / 6773 kbps / 24-bit (DTS Core: 5.1 / 48 kHz / 768 kbps / 24-bit)
Dolby Digital Audio             Chinese         640 kbps        5.1 / 48 kHz / 640 kbps
Dolby Digital Audio             Chinese         192 kbps        2.0 / 48 kHz / 192 kbps

SUBTITLES:

Codec                           Language        Bitrate         Description     
-----                           --------        -------         -----------     
Presentation Graphics           Chinese         23.398 kbps                     
Presentation Graphics           Chinese         3736.727 kbps                  

FILES:

Name            Time In         Length          Size            Total Bitrate   
----            -------         ------          ----            -------------   
00002.M2TS      0:00:00.000     0:04:37.510     1,415,897,088   40,817         
00003.M2TS      0:04:37.510     0:04:45.285     1,393,649,664   39,081         
00004.M2TS      0:09:22.795     0:03:53.700     1,223,510,016   41,883         
00005.M2TS      0:13:16.495     0:05:36.536     1,663,973,376   39,555         
00006.M2TS      0:18:53.031     0:04:28.368     1,269,012,480   37,829         
00007.M2TS      0:23:21.399     0:05:07.006     1,536,970,752   40,050         
00008.M2TS      0:28:28.406     0:04:23.263     1,274,677,248   38,735         
00009.M2TS      0:32:51.669     0:05:37.370     1,614,274,560   38,279         
00010.M2TS      0:38:29.040     0:06:23.616     1,876,641,792   39,136         
00011.M2TS      0:44:52.656     0:03:55.034     1,196,378,112   40,722         
00012.M2TS      0:48:47.691     0:05:35.501     1,570,430,976   37,447         
00013.M2TS      0:54:23.193     0:05:04.737     1,443,778,560   37,902         
00014.M2TS      0:59:27.930     0:06:04.430     1,732,884,480   38,040         
00015.M2TS      1:05:32.361     0:05:51.250     1,661,325,312   37,838         
00016.M2TS      1:11:23.612     0:04:34.741     1,349,419,008   39,293         
00017.M2TS      1:15:58.353     0:04:18.358     1,246,857,216   38,609         
00018.M2TS      1:20:16.711     0:03:46.459     1,107,726,336   39,132         
00019.M2TS      1:24:03.171     0:04:16.756     1,276,753,920   39,781         
00020.M2TS      1:28:19.927     0:04:16.022     1,322,336,256   41,319         
00021.M2TS      1:32:35.950     0:04:29.902     1,319,165,952   39,100         
00022.M2TS      1:37:05.853     0:03:57.203     1,168,097,280   39,396         
00023.M2TS      1:41:03.056     0:04:47.253     1,369,743,360   38,147         
00024.M2TS      1:45:50.310     0:07:48.468     2,382,809,088   40,691         
00025.M2TS      1:53:38.778     0:05:24.057     1,560,514,560   38,524         
00026.M2TS      1:59:02.835     0:06:37.397     1,895,596,032   38,160         
00027.M2TS      2:05:40.232     0:06:27.153     1,862,977,536   38,496         

为您推荐 容祖儿 相关的演唱会视频
主音唯一码
lgych-00099
文件大小
36.33G
百度网盘下载
提取码
见解压密码
文件解压密码
最新天气预报