> T-ARA组合 Cry Cry And Lovey-Dovey Music Video Collection【21.69G】1080P蓝光原盘
歌 手 : T-ara,Tara
主音唯一码 : lgych-00101
视频大小 : 21.69G主音网微信 : tao18074625335
创建时间 : 2017-03-20主音网QQ客服 :2268809533
视频目录 : 蓝光演唱会
主音网邮箱 :bimuyu#zhuyin.com(请把#改成@)
主音唯一码
lgych-00101
文件大小
21.69G
百度网盘下载
提取码
见解压密码
文件解压密码
T-ARA组合 Cry Cry And Lovey-Dovey Music Video Collection【21.69G】1080P蓝光原盘 视频截图










T-ARA组合 Cry Cry And Lovey-Dovey Music Video Collection【21.69G】1080P蓝光原盘 视频剧情截图
T-ARA组合 Cry Cry And Lovey-Dovey Music Video Collection【21.69G】1080P蓝光原盘 演唱会曲目介绍

演唱会曲目介绍

【 収录内容 】
1. 「Cry Cry & Lovey-Dovey」MV Drama ver. *ディレクターズ カット
2. 「Cry Cry」MV Dance ver.
3. 「Cry Cry」MV Ballad ver.
4. 「Lovey-Dovey」MV Zombie ver.
5. 「Lovey-Dovey」MV in Tokyo ver.
6. 「私たち爱し合ったじゃない with Davichi」MV
7. 「Cry Cry & Lovey-Dovey」 Making

曲目表:

1. Cry Cry & Lovey-Dovey (Drama Ver.)
2. Cry Cry (Dance Ver.)
3. Cry Cry (Ballad Ver.)
4. Lovey-Dovey (Zombie Ver.)
5. Lovey-Dovey (in Tokyo Ver.)
6. 我们不是相爱吗(With Davichi)
7. Cry Cry & Lovey-Dovey (Making)
主音唯一码
lgych-00101
文件大小
21.69G
百度网盘下载
提取码
见解压密码
文件解压密码
T-ARA组合 Cry Cry And Lovey-Dovey Music Video Collection【21.69G】1080P蓝光原盘 演唱会视频参数信息

演唱会参数信息

DISC INFO:

Disc Title:     韩国T-ARA组合Music Video Collection【21.69G】1080P蓝光原盘
Disc Size:      23,292,282,353 bytes
Protection:     AACS
BD-Java:        No
BDInfo:         0.5.8

PLAYLIST REPORT:

Name:                   00002.MPLS
Length:                 1:37:34.815 (h:m:s.ms)
Size:                   22,782,246,912 bytes
Total Bitrate:          31.13 Mbps

VIDEO:

Codec                   Bitrate             Description     
-----                   -------             -----------     
MPEG-4 AVC Video        27522 kbps          1080i / 29.970 fps / 16:9 / High Profile 4.1

AUDIO:

Codec                           Language        Bitrate         Description     
-----                           --------        -------         -----------     
LPCM Audio                      Korean          1536 kbps       2.0 / 48 kHz / 1536 kbps / 16-bit

SUBTITLES:

Codec                           Language        Bitrate         Description     
-----                           --------        -------         -----------     
Presentation Graphics           Japanese        104.967 kbps                    
Presentation Graphics           Korean          107.408 kbps                    
Presentation Graphics           English         126.661 kbps               &nbnbsp;    
Presentation Graphics           Chinese         106.209 kbps                    

FILES:

Name            Time In         Length          Size            Total Bitrate   
----            -------         ------          ----            -------------   
00001.M2TS      0:00:00.000     0:33:12.523     7,509,891,072   30,152         
00002.M2TS      0:33:12.523     0:03:30.476     824,143,872     31,325         
00003.M2TS      0:36:43.000     0:03:23.503     800,378,880     31,464         
00004.M2TS      0:40:06.504     0:06:49.842     1,636,325,376   31,941         
00005.M2TS      0:46:56.346     0:04:36.142     1,112,408,064   32,227         
00006.M2TS      0:51:32.489     0:03:34.047     864,129,024     32,297         
00007.M2TS      0:55:06.536     0:41:56.247     9,952,548,864   31,643         
00012.M2TS      1:37:02.783     0:00:13.013     3,538,944       2,176           
00008.M2TS      1:37:15.796     0:00:19.019     78,882,816      33,181         

为您推荐 T-ara,Tara 相关的演唱会视频
主音唯一码
lgych-00101
文件大小
21.69G
百度网盘下载
提取码
见解压密码
文件解压密码
最新天气预报