> 少女时代 Girls Generation Complete Video Collection 2012【45
歌 手 : 少女时代,金泰妍,郑秀妍,黄美英,权俞利,崔秀英,林允儿
主音唯一码 : lgych-00102
视频大小 : 45.11G主音网微信 : zhuyinwang01
创建时间 : 2018-09-10主音网QQ客服 :2305540263
视频目录 : 韩国演唱会
主音网邮箱 :bimuyu#zhuyin.com(请把#改成@)
主音唯一码
lgych-00102
文件大小
45.11G
百度网盘下载
提取码
6sef
文件解压密码
少女时代 Girls Generation Complete Video Collection 2012【45 视频截图














少女时代 Girls Generation Complete Video Collection 2012【45 视频剧情截图
少女时代 Girls Generation Complete Video Collection 2012【45 演唱会曲目介绍

演唱会曲目介绍

[DISC1]
☆成员长篇访问 [Interview]

[DISC2]
Japanese ver.

01. GENIE
02. GENIE Dance ver.
03. Gee
04. Gee Dance ver.
05. Run Devil Run
06. Run Devil Run Dance ver.
07. MR.TAXI
08. MR.TAXI Dance ver.
09. BAD GIRL
10. Time Machine
11. PAPARAZZI
from Japan 1ST Tour Re-EDIT
12. MR. TAXI
13. THE GREAT ESCAPE
14. Gee

[DISC3]
Korean ver.

01. Into the new world
02. 少女时代
03. Kissing you
04. Gee
05. GENIE
06. Oh!
07. Run Devil Run
08. Run Devil Run Story ver.
09. HOOT
10. HOOT Dance ver.
11. THE BOYS

English ver.
12. THE BOYS
主音唯一码
lgych-00102
文件大小
45.11G
百度网盘下载
提取码
6sef
文件解压密码
少女时代 Girls Generation Complete Video Collection 2012【45 演唱会视频参数信息

演唱会参数信息

DISC INFO:

Disc Title:     少女时代 Girls Generation Complete Video Collection 2012【45.11G】1080P蓝光原盘
Disc Size:      16,812,793,640 bytes
Protection:     AACS
BD-Java:        No
BDInfo:         0.5.8

PLAYLIST REPORT:

Name:                   00001.MPLS
Length:                 0:56:56.037 (h:m:s.ms)
Size:                   16,582,416,384 bytes
Total Bitrate:          38.83 Mbps

VIDEO:

Codec                   Bitrate             Description     
-----                   -------             -----------     
MPEG-4 AVC Video        34788 kbps          1080p / 23.976 fps / 16:9 / High Profile 4.1

AUDIO:

Codec&nnbsp;                          Language        Bitrate         Description     
-----                           --------        -------         -----------     
LPCM Audio                      Multiple languages2304 kbps       2.0 / 48 kHz / 2304 kbps / 24-bit

FILES:

Name            Time In         Length          Size            Total Bitrate   
----            -------         ------          ----            -------------   
00002.M2TS      0:00:00.000     0:25:37.160     7,471,177,728   38,883         
00003.M2TS      0:25:37.160     0:31:17.876     9,110,906,880   38,814         
00007.M2TS      0:56:55.036     0:00:01.000     331,776         2,652           
为您推荐 少女时代,金泰妍,郑秀妍,黄美英,权俞利,崔秀英,林允儿 相关的演唱会视频
主音唯一码
lgych-00102
文件大小
45.11G
百度网盘下载
提取码
6sef
文件解压密码
最新天气预报