> KARA<Karasia 2013 Happy New Year in Tokyo Dome>东京巨蛋演唱会【54.9G】1080P蓝光原盘
歌 手 : Kara
主音唯一码 : lgych-00138
视频大小 : 54.9G主音网微信 : tao18074625335
创建时间 : 2017-04-01主音网QQ客服 :2268809533
视频目录 : 韩国演唱会
主音网邮箱 :bimuyu#zhuyin.com(请把#改成@)
主音唯一码
lgych-00138
文件大小
54.9G
百度网盘下载
提取码
见解压密码
文件解压密码
KARA<Karasia 2013 Happy New Year in Tokyo Dome>东京巨蛋演唱会【54.9G】1080P蓝光原盘 视频截图














KARA<Karasia 2013 Happy New Year in Tokyo Dome>东京巨蛋演唱会【54.9G】1080P蓝光原盘 视频剧情截图
KARA<Karasia 2013 Happy New Year in Tokyo Dome>东京巨蛋演唱会【54.9G】1080P蓝光原盘 演唱会曲目介绍
演唱会曲目介绍

DISC1
(1)Pandora
(2)スピード アップ
(3)ジャンピン
(4)ドリーミンガール(Honey by シンティア)
(5)I Love Rock N’Roll(by ハラ)
(6)ストロング?イナフ(by スンヨン)
(7)ガールズ パワー
(8)キスミートゥナイト
(9)Pretty Girl
(10)ウィンターマジック
(11)オリオン
(12)今,贈りたい「ありがとう」
(13)HUMPIN’AROUND(by ニコル)
(14)白鳥の湖~白昼夢(by ギュリ)
(15)学園天国(by ジヨン)
(16)LUPIN
(17)STEP
(18)Let It Go
(19)エレクトリックボーイ
(20)GO GO サマー!
(21)ジェットコースターラブ
(22)Rock U
〈ENCORE〉
(23)ガールズ ビー アンビシャス!
(24)SOS
(25)ミスター

DISC2特典ディスク
当日の舞台裏に完全密着したオフショット映像を収録。
主音唯一码
lgych-00138
文件大小
54.9G
百度网盘下载
提取码
见解压密码
文件解压密码
KARA<Karasia 2013 Happy New Year in Tokyo Dome>东京巨蛋演唱会【54.9G】1080P蓝光原盘 演唱会视频参数信息

演唱会参数信息

DISC INFO:

Disc Title:     KARA东京巨蛋演唱会【54.9G】1080P蓝光原盘
Disc Size:      43,716,693,982 bytes
Protection:     AACS
BD-Java:        No
BDInfo:         0.5.8

PLAYLIST REPORT:

Name:                   00001.MPLS
Length:                 2:36:16.667 (h:m:s.ms)
Size:                   43,349,428,224 bytes
Total Bitrate:          36.98 Mbps

VIDEO:

Codec                   Bitrate             Description     
-----                   -------             -----------     
MPEG-4 AVC Video        33014 kbps          1080i / 29.970 fps / 16:9 / High Profile 4.1

AUDIO:

Codec                           Language        Bitrate         Description     
-----                           --------        -------         -----------     
LPCM Audio                      Japanese        2304 kbps       2.0 / 48 kHz / 2304 kbps / 24-bit

FILES:

Name            Time In         Length          Size            Total Bitrate   
----            -------         ------          ----            -------------   
00002.M2TS      0:00:00.000     0:45:58.622     12,765,167,616  37,019         
00003.M2TS      0:45:58.622     0:48:43.353     13,509,611,520  36,970         
00004.M2TS      1:34:41.976     1:01:34.690     17,074,649,088  36,971         

为您推荐 Kara 相关的演唱会视频
主音唯一码
lgych-00138
文件大小
54.9G
百度网盘下载
提取码
见解压密码
文件解压密码
最新天气预报