> Perfume 电音香水<Perfume Clips>MV精选合集2014【50.7G】1080P蓝光原盘.日版双碟
歌 手 : Perfume,电音香水,西脇绫香,樫野有香,大本彩乃
主音唯一码 : lgych-00268
视频大小 : 50.7G主音网微信 : tao18074625335
创建时间 : 2017-06-06主音网QQ客服 :2268809533
视频目录 : 蓝光演唱会
主音网邮箱 :bimuyu#zhuyin.com(请把#改成@)
主音唯一码
lgych-00268
文件大小
50.7G
百度网盘下载
提取码
jznq
文件解压密码
Perfume 电音香水<Perfume Clips>MV精选合集2014【50.7G】1080P蓝光原盘.日版双碟 视频截图


























Perfume 电音香水<Perfume Clips>MV精选合集2014【50.7G】1080P蓝光原盘.日版双碟 视频剧情截图
Perfume 电音香水<Perfume Clips>MV精选合集2014【50.7G】1080P蓝光原盘.日版双碟 演唱会曲目介绍
演唱会曲目介绍: 

Linear Motr Girl
Computer City
Electro World
Chocolate Disco
Twinkle Snow Powdery Snow
Polyrhythm
Baby cruising Love
Macaroni
Secret Secret
love the world
Dream Fighter
One Room Disco
I still love U
不自然女孩
自然爱
VOICE

Laser Beam -FULL Ver.-
GLITTER
SPICE
微香 -TV Ver.-
FAKE IT
Chocolate Disco -Historical Live Act Version-

Perfume Clips 4倍速度声音评论
Macaroni -A-CHAN Version-
Macaroni -KASHIYUKA Version-
Macaroni -NOCCHI Version-
I still love U -剧透Version-
微香 -纵向Version-
主音唯一码
lgych-00268
文件大小
50.7G
百度网盘下载
提取码
jznq
文件解压密码
Perfume 电音香水<Perfume Clips>MV精选合集2014【50.7G】1080P蓝光原盘.日版双碟 演唱会视频参数信息
演唱会参数信息

DISC INFO:

Disc Title:     lgych-00268 Perfume 电音香水 Perfume Clips MV精选合集2014【50.7G】1080P蓝光原盘.日版双碟
Disc Size:      32,492,299,685 bytes
Protection:     AACS
BD-Java:        No
BDInfo:         0.5.8

PLAYLIST REPORT:

Name:                   00001.MPLS
Length:                 1:42:33.046 (h:m:s.ms)
Size:                   0 bytes
Total Bitrate:          0.00 Mbps

VIDEO:

Codec                   Bitrate             Description     
-----                   -------             -----------     
MPEG-4 AVC Video        0 kbps              1080i / 29.970 fps / 16:9 / High Profile 4.1

AUDIO:

Codec                           Language        Bitrate         Description     
-----                           --------        -------         -----------     
LPCM Audio                      Japanese        2304 kbps       2.0 / 48 kHz / 2304 kbps / 24-bit

FILES:

Name            Time In         Length          Size            Total Bitrate   
----            -------         ------          ----            -------------   
00001.M2TS      0:00:00.000     0:04:17.256     0               0               
00002.M2TS      0:04:17.256     0:03:36.216     0               0               
00003.M2TS      0:07:53.473     0:04:09.248     0               0               
为您推荐 Perfume,电音香水,西脇绫香,樫野有香,大本彩乃 相关的演唱会视频
主音唯一码
lgych-00268
文件大小
50.7G
百度网盘下载
提取码
jznq
文件解压密码
最新天气预报