> 坂本真绫<15th Anniversary Live Gift>15周年武道馆纪念演唱会2011【42.9G】1080P蓝光原盘
歌 手 : 坂本真绫
主音唯一码 : lgych-00282
视频大小 : 42.9G主音网微信 : tao18074625335
创建时间 : 2017-08-31主音网QQ客服 :2268809533
视频目录 : 日本演唱会
主音网邮箱 :bimuyu#zhuyin.com(请把#改成@)
主音唯一码
lgych-00282
文件大小
42.9G
百度网盘下载
提取码
mgps
文件解压密码
坂本真绫<15th Anniversary Live Gift>15周年武道馆纪念演唱会2011【42.9G】1080P蓝光原盘 视频截图






















坂本真绫<15th Anniversary Live Gift>15周年武道馆纪念演唱会2011【42.9G】1080P蓝光原盘 视频剧情截图
坂本真绫<15th Anniversary Live Gift>15周年武道馆纪念演唱会2011【42.9G】1080P蓝光原盘 演唱会曲目介绍
坂本真绫 15th Anniversary Live Gift 15周年武道馆纪念演唱会2011【42.9G】1080P蓝光原盘
Sakamoto Maaya 15th Anniversary Live "Gift" at Nippon Budokan


01.Gift
02.Feel Myself
03.Platina
04.blind summer fish
05.Hemisphere
06.Yukka
07.30 minutes night fright
08.Remedy
09.Koucha
10.Sonic Boom
11.dr solo
12.par solo
13.Kiseki no Umi
14.gravity
15.Kazamidori
16.Daniel(with guitar only)
17.Medley with Kanno playing piano only
18.Yakusoku wa Iranai(intro)
19.Yubiwa
20.Active Heart
21.Alkaloid
22.Yoake no octave
23.Tell Me What The Rain Knows
24.tune the rainbow
25.Choko to Yuuki
26.Triangler
27.Yakusoku wa Iranai
28.Get No Satisfaction!
29.Mameshiba
30.Private Sky
31.Hikari Are
32.I.D.
33.Kazemachi Jet (+ Suzuki Shouko playing drums)
34.Magic Number(+ Suzuki Shouko playing drums)
35.everywhere
36.Empty the pocket (+Kanno, Suzuki Shouko)
主音唯一码
lgych-00282
文件大小
42.9G
百度网盘下载
提取码
mgps
文件解压密码
坂本真绫<15th Anniversary Live Gift>15周年武道馆纪念演唱会2011【42.9G】1080P蓝光原盘 演唱会视频参数信息
演唱会参数信息

DISC INFO:

Disc Title:     lgych-00282 坂本真绫 15th Anniversary Live Gift 15周年武道馆纪念演唱会2011【42.9G】1080P蓝光原盘
Disc Size:      46,108,749,780 bytes
Protection:     AACS
BD-Java:        No
BDInfo:         0.5.8

PLAYLIST REPORT:

Name:                   00001.MPLS
Length:                 2:48:12.248 (h:m:s.ms)
Size:                   0 bytes
Total Bitrate:          0.00 Mbps

VIDEO:

Codec                   Bitrate             Description     
-----                   -------             -----------     
MPEG-4 AVC Video        0 kbps              1080i / 29.970 fps / 16:9 / High Profile 4.1

AUDIO:

Codec                           Language        Bitrate         Description     
-----                           --------        -------         -----------     
LPCM Audio                      Japanese        2304 kbps       2.0 / 48 kHz / 2304 kbps / 24-bit
LPCM Audio                      Japanese        6912 kbps       5.1 / 48 kHz / 6912 kbps / 24-bit

FILES:

Name            Time In         Length          Size            Total Bitrate   
----            -------         ------          ----            -------------   
00001.M2TS      0:00:00.000     1:10:28.724     0               0               
00002.M2TS      1:10:28.724     0:57:56.339     0               0               
00003.M2TS      2:08:25.064     0:39:28.165     0               0               
00004.M2TS      2:47:53.229     0:00:19.019     0               0               
为您推荐 坂本真绫 相关的演唱会视频
主音唯一码
lgych-00282
文件大小
42.9G
百度网盘下载
提取码
mgps
文件解压密码
最新天气预报