> 水树奈奈<Nana Mizuki - Live Games x Academy -Red->游戏学院演唱会2010【89.7G】1080P蓝光原盘
歌 手 : 水树奈奈,Nana Mizuki
主音唯一码 : lgych-00296
视频大小 : 89.7G主音网微信 : tao18074625335
创建时间 : 2017-09-06主音网QQ客服 :2268809533
视频目录 : 蓝光演唱会
主音网邮箱 :bimuyu#zhuyin.com(请把#改成@)
主音唯一码
lgych-00296
文件大小
89.7G
百度网盘下载
提取码
9fak
文件解压密码
水树奈奈<Nana Mizuki - Live Games x Academy -Red->游戏学院演唱会2010【89.7G】1080P蓝光原盘 视频截图


























水树奈奈<Nana Mizuki - Live Games x Academy -Red->游戏学院演唱会2010【89.7G】1080P蓝光原盘 视频剧情截图
水树奈奈<Nana Mizuki - Live Games x Academy -Red->游戏学院演唱会2010【89.7G】1080P蓝光原盘 演唱会曲目介绍
水树奈奈 Nana Mizuki - Live Games x Academy -Red- 游戏学院演唱会2010【89.7G】1080P蓝光原盘
水树奈奈 Nana Mizuki - Live Games x Academy -Red- [2010.12.22][89.75]
(水树奈奈 - LIVE GAMES×ACADEMY-RED-)

曲目

Disc 1
1. OPENING
2. Orchestral Fantasia
3. DRAGONIA
4. WILD EYES
5. MC 1
6. What cheer?
7. SCOOP SCOPE
8. パノラマ-Panorama-
9. チェリボの大冒険 (CHERRY BOYS SHOWCASE)
10. Young Alive!
11. RUSH&DASH!
12. MC 2
13. 夏恋模様
14. ray of change
15. リプレイマシン-custom-
16. DANCING HEROINES (TEAM YO-DA SHOWCASE)
17. POWER GATE
18. MC 3
19. ハートキャッチ☆パラダイス
20. MC 4
21. DISCOTHEQUE
22. TIME TO NEXT ARCADIA (SHORT MOVIE)
23. NEXT ARCADIA
24. MC 5
25. ETERNAL BLAZE
26. BE READY!
27. CHERIBO MUSIC FIGHT (BAND BATTLE)
28. ミュステリオン
29. 悦楽カメリア
30. UNCHAIN∞WORLD
31. MC 6
32. Silent Bible
33. 恋の抑止力-type EXCITER- [encore]
34. MC 7 [encore]
35. Dancing in the velvet moon [encore]
36. Astrogation [encore]
37. MC 8 [encore]
38. 星空と月と花火の下 [encore]
39. LINE UP [encore]
40. END ROLL

Disc 2

1. OPENING
2. SUPER GENERATION
3. You have a dream
4. DISCOTHEQUE
5. MC 1
6. Mr.Bunny!
7. アオイイロ
8. COSMIC LOVE
9. CHERRY BOYS SHOWCASE
10. UNCHAIN∞WORLD
11. Don’t be long
12. 夢幻
13. MC 2
14. 深愛
15. PHANTOM MINDS
16. TEAM YO-DA SHOWCASE
17. Dear Dream
18. MC 3
19. DESIRE-情熱-
20. 振付講座
21. JUMP!
22. POWER GATE
23. VIOLIN & SAX SHOWCASE
24. 天空のカナリア
25. Silent Bible
26. MC 4
27. ETERNAL BLAZE
28. Tears’ Night
29. Inside of mind
30. Gimmick Game
31. Song Communication [encore]
32. MC 5 [encore]
33. STORIES [encore]
34. MC 6 [encore]
35. TRANSMIGRATION [encore]
36. LINE UP [encore]
37. MC 7 [w encore]
38. つがざくら [w encore]
39. END ROLL??
主音唯一码
lgych-00296
文件大小
89.7G
百度网盘下载
提取码
9fak
文件解压密码
水树奈奈<Nana Mizuki - Live Games x Academy -Red->游戏学院演唱会2010【89.7G】1080P蓝光原盘 演唱会视频参数信息
演唱会参数信息

DISC INFO:

Disc Title:     lgych-00296 水树奈奈 Nana Mizuki - Live Games x Academy -Red- 游戏学院演唱会2010【89.7G】1080P蓝光原盘
Disc Size:      46,382,709,924 bytes
Protection:     AACS
BD-Java:        No
BDInfo:         0.5.8

PLAYLIST REPORT:

Name:                   00002.MPLS
Length:                 3:27:26.867 (h:m:s.ms)
Size:                   0 bytes
Total Bitrate:          0.00 Mbps

VIDEO:

Codec                   Bitrate             Description     
-----                   -------             -----------     
MPEG-4 AVC Video        0 kbps              1080i / 29.970 fps / 16:9 / High Profile 4.1

AUDIO:

Codec                           Language        Bitrate         Description     
-----                           --------        -------         -----------     
LPCM Audio                      Japanese        1536 kbps       2.0 / 48 kHz / 1536 kbps / 16-bit
Dolby TrueHD Audio              Japanese        0 kbps          5.1 / 48 kHz / 16-bit (AC3 Embedded: 5.1 / 48 kHz / 640 kbps)
Dolby Digital Audio             Japanese        640 kbps        2.0 / 48 kHz / 640 kbps

FILES:

Name            Time In         Length          Size            Total Bitrate   
----            -------         ------          ----            -------------   
00000.M2TS      0:00:00.000     1:46:03.990     0               0               
00001.M2TS      1:46:03.990     1:41:13.867     0               0               
00002.M2TS      3:27:17.858     0:00:09.009     0               0               
为您推荐 水树奈奈,Nana Mizuki 相关的演唱会视频
主音唯一码
lgych-00296
文件大小
89.7G
百度网盘下载
提取码
9fak
文件解压密码
最新天气预报