> 水树奈奈<Nana Mizuki LIVE FLIGHT×FLIGHT+>横滨场+新加坡场演唱会2015四碟【152G】1080P蓝光原盘
歌 手 : 水树奈奈,Nana Mizuki
主音唯一码 : lgych-00299
视频大小 : 152G主音网微信 : tao18074625335
创建时间 : 2017-09-08主音网QQ客服 :2268809533
视频目录 : 蓝光演唱会
主音网邮箱 :bimuyu#zhuyin.com(请把#改成@)
主音唯一码
lgych-00299
文件大小
152G
百度网盘下载
提取码
nwgv
文件解压密码
水树奈奈<Nana Mizuki LIVE FLIGHT×FLIGHT+>横滨场+新加坡场演唱会2015四碟【152G】1080P蓝光原盘 视频截图
























水树奈奈<Nana Mizuki LIVE FLIGHT×FLIGHT+>横滨场+新加坡场演唱会2015四碟【152G】1080P蓝光原盘 视频剧情截图
水树奈奈<Nana Mizuki LIVE FLIGHT×FLIGHT+>横滨场+新加坡场演唱会2015四碟【152G】1080P蓝光原盘 演唱会曲目介绍
水树奈奈 Nana Mizuki LIVE FLIGHT×FLIGHT+ 横滨场+新加坡场演唱会2015四碟【152G】1080P蓝光原盘
水树奈奈演唱会 Nana Mizuki - LIVE FLIGHT×FLIGHT+ [2015.01.14][4碟]【152.08 】
水树奈奈 - LIVE FLIGHT×FLIGHT+
曲目

DISC1 + DISC2
2014.8.3 YOKOHAMA STADIUM

01. Opening
02. Virgin Code
03. Next Arcadia
04. Revolution
05. MC 1**
06. Million Weys
07. Don't Be Long
08. Cherry Boys - Showcase
09. Fun Fun People
10. Dramatic Love
11. Where abouts of smile
12. MC 2
13. Desire- Passion -
14. MC 3
15. Sky Watch
16. Fate
17. Team Yo-Da Showcase 「New Generation」
18. Guilty
19. Still In The Groove
20. MC 4
21. Undercover
22. Antique Nachtmusik
23. Short Movie 「Promised Wings」
24. Vitalization
25. Appasionato
26. Eternal Blaze
27. MC 5
28. New Sensation
29. Rock You Baby!
30. Power Gate
31. MC 6
32. Miracle ☆ Flight
33. Space-Time Sapphire
34. Setsuna Capacity
35. MC 7
36. Innocent Starter
37. MC 8
38. Discotheque
39. Lineup
40. MC 9
41. Aquiro
42. MC 10
43. End Roll

DISC3
NANA MIZUKI LIVE FLIGHT 2014+
2014.9.27
Resorts World? Theatre, Resorts World Sentosa

01. Opening
02. Virgin Code
03. Vitalization
04. Of Afterglow Gaia
05. MC 1
06. Silent Bible
07. Eternal Blaze
08. Cherry Boys - Showcase
09. Fun Fun★People
10. Dramatic Love
11. MC 2
12. Setsuna Capacity
13. Fate
14. Team Yo-Da Showcase 「New Generation」
15. Guilty
16. Still In The Groove
17. MC 3
18. Fantasy
19. Antique Nachtmusik
20. Short Movie 「Promised Wings」
21. Revolution
22. Appassionato
23. MC 4
24. Forbidden Ressistance
25. MC 5
26. Rock You Baby!
27. Power Gate
28. MC 6
29. Miracle ☆ flight
30. Pop Master
31. MC 7
32. Discotheque
33. Lineup
34. MC 8
35. Love
36. MC 9
37. End Roll


DISC4
SPECIAL FEATURE DISC

01. Preserved Roses
02. Stay Gold
03. Transmigration
04. Light
05. Throught the Night
06. Idealistic The Ory
07. Suddenly
08. Jet Park
主音唯一码
lgych-00299
文件大小
152G
百度网盘下载
提取码
nwgv
文件解压密码
水树奈奈<Nana Mizuki LIVE FLIGHT×FLIGHT+>横滨场+新加坡场演唱会2015四碟【152G】1080P蓝光原盘 演唱会视频参数信息
演唱会参数信息

DISC INFO:

Disc Title:     lgych-00299.zhuyin.com 水树奈奈 Nana Mizuki LIVE FLIGHT×FLIGHT+ 横滨场+新加坡场演唱会2015四碟【152G】1080P蓝光原盘
Disc Size:      48,788,952,564 bytes
Protection:     AACS
BD-Java:        No
BDInfo:         0.5.8

PLAYLIST REPORT:

Name:                   00003.MPLS
Length:                 2:43:18.788 (h:m:s.ms)
Size:                   0 bytes
Total Bitrate:          0.00 Mbps

Angle 1 Length:         0:01:31.216 (h:m:s.ms) / 2:43:18.788 (h:m:s.ms)
Angle 1 Size:           0 bytes / 0 bytes
Angle 1 Total Bitrate:  0.00 Mbps / 0.00 Mbps

All Angles Length:      2:44:50.005 (h:m:s.ms)
All Angles Size:        0 bytes
All Angles Bitrate:     0.00 Mbps

VIDEO:

Codec                   Bitrate             Description     
-----                   -------             -----------     
MPEG-4 AVC Video        0 kbps              1080p / 23.976 fps / 16:9 / High Profile 4.1
MPEG-4 AVC Video (1)    0 (0) kbps          1080p / 23.976 fps / 16:9 / High Profile 4.1

AUDIO:

Codec                           Language        Bitrate         Description     
-----                           --------        -------         -----------     
LPCM Audio                      Japanese        2304 kbps       2.0 / 48 kHz / 2304 kbps / 24-bit
DTS-HD Master Audio             Japanese        0 kbps          5.1 / 48 kHz / 16-bit (DTS Core: 5.1 / 48 kHz / 768 kbps / 16-bit)

FILES:

Name            Time In         Length          Size            Total Bitrate   
----            -------         ------          ----            -------------   
00003.M2TS      0:00:00.000     0:01:31.216     0               0               
00004.M2TS      0:00:00.000     0:01:31.216     0               0               
00005.M2TS      0:01:31.216     2:41:47.572     0               0               
为您推荐 水树奈奈,Nana Mizuki 相关的演唱会视频
主音唯一码
lgych-00299
文件大小
152G
百度网盘下载
提取码
nwgv
文件解压密码
最新天气预报