> 滨崎步<Ayumi Hamasaki Countdown LIVE>东京代代木第一体育馆2013-2014跨年演唱会【35.6G】1080P蓝光原盘
歌 手 : 滨崎步
主音唯一码 : lgych-00304
视频大小 : 35.6G主音网微信 : tao18074625335
创建时间 : 2017-09-12主音网QQ客服 :2268809533
视频目录 : 日本演唱会
主音网邮箱 :bimuyu#zhuyin.com(请把#改成@)
主音唯一码
lgych-00304
文件大小
35.6G
百度网盘下载
提取码
mtqb
文件解压密码
滨崎步<Ayumi Hamasaki Countdown LIVE>东京代代木第一体育馆2013-2014跨年演唱会【35.6G】1080P蓝光原盘 视频截图
















滨崎步<Ayumi Hamasaki Countdown LIVE>东京代代木第一体育馆2013-2014跨年演唱会【35.6G】1080P蓝光原盘 视频剧情截图
滨崎步<Ayumi Hamasaki Countdown LIVE>东京代代木第一体育馆2013-2014跨年演唱会【35.6G】1080P蓝光原盘 演唱会曲目介绍
滨崎步 Ayumi Hamasaki Countdown LIVE 东京代代木第一体育馆2013-2014跨年演唱会【35.6G】1080P蓝光原盘
曲目

01. Feel the love
02. WE WISH
03. Free & Easy
04. Because of You
05. Love is All
06. CAROLS
07. momentum
08. electrocinema break
09. is this LOVE?
10. Love song
11. Merry-go-round
12. You & Me
13. SURREAL ~ evolution ~ SURREAL
[encore]
14. part of me
15. Curtain call
16. Boys & Girls
17. Humming7/4
18. Bold & Delicious
主音唯一码
lgych-00304
文件大小
35.6G
百度网盘下载
提取码
mtqb
文件解压密码
滨崎步<Ayumi Hamasaki Countdown LIVE>东京代代木第一体育馆2013-2014跨年演唱会【35.6G】1080P蓝光原盘 演唱会视频参数信息
演唱会参数信息

DISC INFO:

Disc Title:     lgych-00304 滨崎步 Ayumi Hamasaki Countdown LIVE 东京代代木第一体育馆2013-2014跨年演唱会【35.6G】1080P蓝光原盘
Disc Size:      38,262,207,278 bytes
Protection:     AACS
BD-Java:        No
BDInfo:         0.5.8

PLAYLIST REPORT:

Name:                   00001.MPLS
Length:                 2:08:59.732 (h:m:s.ms)
Size:                   0 bytes
Total Bitrate:          0.00 Mbps

VIDEO:

Codec                   Bitrate             Description     
-----                   -------             -----------     
MPEG-4 AVC Video        0 kbps              1080p / 23.976 fps / 16:9 / High Profile 4.1

AUDIO:

Codec                           Language        Bitrate         Description     
-----                           --------        -------         -----------     
LPCM Audio                      Japanese        2304 kbps       2.0 / 48 kHz / 2304 kbps / 24-bit

FILES:

Name            Time In         Length          Size            Total Bitrate   
----            -------         ------          ----            -------------   
00001.M2TS      0:00:00.000     1:49:23.557     0               0               
00002.M2TS      1:49:23.557     0:10:31.631     0               0               
00003.M2TS      1:59:55.188     0:09:04.543     0               0               
为您推荐 滨崎步 相关的演唱会视频
主音唯一码
lgych-00304
文件大小
35.6G
百度网盘下载
提取码
mtqb
文件解压密码
最新天气预报