> 滨崎步<Ayumi Hamasaki Arena Tour 2006>日本巡回演唱会【40.2G】1080P蓝光原盘
歌 手 : 滨崎步
主音唯一码 : lgych-00316
视频大小 : 40.2G主音网微信 : tao18074625335
创建时间 : 2017-09-16主音网QQ客服 :2268809533
视频目录 : 日本演唱会
主音网邮箱 :bimuyu#zhuyin.com(请把#改成@)
主音唯一码
lgych-00316
文件大小
40.2G
百度网盘下载
提取码
433r
文件解压密码
滨崎步<Ayumi Hamasaki Arena Tour 2006>日本巡回演唱会【40.2G】1080P蓝光原盘 视频截图
















滨崎步<Ayumi Hamasaki Arena Tour 2006>日本巡回演唱会【40.2G】1080P蓝光原盘 视频剧情截图
滨崎步<Ayumi Hamasaki Arena Tour 2006>日本巡回演唱会【40.2G】1080P蓝光原盘 演唱会曲目介绍
滨崎步 Ayumi Hamasaki Arena Tour 2006 日本巡回演唱会【40.2G】1080P蓝光原盘
滨崎步2006巡回演唱会 Arena Tour 2006 A: (Miss)understood 2006.11.01][40.24]
Ayumi Hamasaki - Arena Tour 2006 A: (Miss)understood [2006.11.01]

曲目

00. Are You Wake Up?
01. Born To Be...
02. AUDIENCE
03. evolution
04. STEP you
05. Ladies Night
06. alterna
07. is this LOVE
08. (miss)understood
09. tasking
10. Pride
11. rainy day5
12. Startin'
13. UNITE!
14. Bold & Delicious
15. HEAVEN+ U
16. teens
17. BLUE BIRD
18. Humming, m
19. Boys & Girls,
20. Beautiful Day
主音唯一码
lgych-00316
文件大小
40.2G
百度网盘下载
提取码
433r
文件解压密码
滨崎步<Ayumi Hamasaki Arena Tour 2006>日本巡回演唱会【40.2G】1080P蓝光原盘 演唱会视频参数信息
演唱会参数信息

DISC INFO:

Disc Title:     lgych-00316 滨崎步 Ayumi Hamasaki Arena Tour 2006 日本巡回演唱会【40.2G】1080P蓝光原盘
Disc Size:      43,204,569,316 bytes
Protection:     AACS
BD-Java:        No
BDInfo:         0.5.8

PLAYLIST REPORT:

Name:                   00000.MPLS
Length:                 2:25:13.704 (h:m:s.ms)
Size:                   0 bytes
Total Bitrate:          0.00 Mbps

VIDEO:

Codec                   Bitrate             Description     
-----                   -------             -----------     
MPEG-4 AVC Video        0 kbps              1080i / 29.970 fps / 16:9 / High Profile 4.1

AUDIO:

Codec                           Language        Bitrate         Description     
-----                           --------        -------         -----------     
LPCM Audio                      Japanese        2304 kbps       2.0 / 48 kHz / 2304 kbps / 24-bit
DTS-HD Master Audio             Japanese        0 kbps          5.1 / 48 kHz / 24-bit (DTS Core: 5.1 / 48 kHz / 1509 kbps / 24-bit)

FILES:

Name            Time In         Length          Size            Total Bitrate   
----            -------         ------          ----            -------------   
00000.M2TS      0:00:00.000     1:17:01.450     0               0               
00001.M2TS      1:17:01.450     1:02:35.918     0               0               
00006.M2TS      2:19:37.368     0:05:36.336     0               0               
为您推荐 滨崎步 相关的演唱会视频
主音唯一码
lgych-00316
文件大小
40.2G
百度网盘下载
提取码
433r
文件解压密码
最新天气预报