> 滨崎步<Ayumi Hamasaki Countdown Live 2007-2008 Anniversary>跨年演唱会【35G】1080P蓝光原盘
歌 手 : 滨崎步
主音唯一码 : lgych-00317
视频大小 : 35G主音网微信 : tao18074625335
创建时间 : 2017-09-16主音网QQ客服 :2268809533
视频目录 : 蓝光演唱会
主音网邮箱 :bimuyu#zhuyin.com(请把#改成@)
主音唯一码
lgych-00317
文件大小
35G
百度网盘下载
提取码
889p
文件解压密码
滨崎步<Ayumi Hamasaki Countdown Live 2007-2008 Anniversary>跨年演唱会【35G】1080P蓝光原盘 视频截图












滨崎步<Ayumi Hamasaki Countdown Live 2007-2008 Anniversary>跨年演唱会【35G】1080P蓝光原盘 视频剧情截图
滨崎步<Ayumi Hamasaki Countdown Live 2007-2008 Anniversary>跨年演唱会【35G】1080P蓝光原盘 演唱会曲目介绍
滨崎步 Ayumi Hamasaki Countdown Live 2007-2008 Anniversary 跨年演唱会【35G】1080P蓝光原盘
Ayumi Hamasaki COUNTDOWN LIVE 2007-2008 Anniversary 滨崎步2007-2008跨年演唱会[35.01]

曲目

1. starting over
2. talkin' 2 myself
3. STEP you
4. Ladies Night
5. fated
6. Together When...
7. decision
8. SURREAL
9. Bold & Delicious
10. RAINBOW
11. evolution
12. Boys & Girls
13. glitter
14. untitled ~for her~(encore)
15. 卒業写真(encore)
16. +(encore)
17. Humming 7/4(encore)
18. MY ALL(encore) 
主音唯一码
lgych-00317
文件大小
35G
百度网盘下载
提取码
889p
文件解压密码
滨崎步<Ayumi Hamasaki Countdown Live 2007-2008 Anniversary>跨年演唱会【35G】1080P蓝光原盘 演唱会视频参数信息
演唱会参数信息

DISC INFO:

Disc Title:     lgych-00317 滨崎步 Ayumi Hamasaki Countdown Live 2007-2008 Anniversary 跨年演唱会【35G】1080P蓝光原盘
Disc Size:      37,592,569,088 bytes
Protection:     AACS
BD-Java:        No
BDInfo:         0.5.8

PLAYLIST REPORT:

Name:                   00000.MPLS
Length:                 2:14:00.031 (h:m:s.ms)
Size:                   0 bytes
Total Bitrate:          0.00 Mbps

VIDEO:

Codec                   Bitrate             Description     
-----                   -------             -----------     
MPEG-4 AVC Video        0 kbps              1080i / 29.970 fps / 16:9 / High Profile 4.1

AUDIO:

Codec                           Language        Bitrate         Description     
-----                           --------        -------         -----------     
LPCM Audio                      Japanese        2304 kbps       2.0 / 48 kHz / 2304 kbps / 24-bit
DTS-HD Master Audio             Japanese        0 kbps          5.1 / 48 kHz / 24-bit (DTS Core: 5.1 / 48 kHz / 1509 kbps / 24-bit)

FILES:

Name            Time In         Length          Size            Total Bitrate   
----            -------         ------          ----            -------------   
00002.M2TS      0:00:00.000     1:14:14.950     0               0               
00003.M2TS      1:14:14.950     0:54:06.910     0               0               
00006.M2TS      2:08:21.860     0:05:38.171     0               0               
为您推荐 滨崎步 相关的演唱会视频
主音唯一码
lgych-00317
文件大小
35G
百度网盘下载
提取码
889p
文件解压密码
最新天气预报