> 滨崎步<Ayumi Hamasaki Premium Countdown Live 2008-2009>信念倒计时演唱会【44.7G】1080P蓝光原盘
歌 手 : 滨崎步
主音唯一码 : lgych-00318
视频大小 : 44.7G主音网微信 : tao18074625335
创建时间 : 2017-09-16主音网QQ客服 :2268809533
视频目录 : 蓝光演唱会
主音网邮箱 :bimuyu#zhuyin.com(请把#改成@)
主音唯一码
lgych-00318
文件大小
44.7G
百度网盘下载
提取码
xg97
文件解压密码
滨崎步<Ayumi Hamasaki Premium Countdown Live 2008-2009>信念倒计时演唱会【44.7G】1080P蓝光原盘 视频截图
















滨崎步<Ayumi Hamasaki Premium Countdown Live 2008-2009>信念倒计时演唱会【44.7G】1080P蓝光原盘 视频剧情截图
滨崎步<Ayumi Hamasaki Premium Countdown Live 2008-2009>信念倒计时演唱会【44.7G】1080P蓝光原盘 演唱会曲目介绍
滨崎步 Ayumi Hamasaki Premium Countdown Live 2008-2009 信念倒计时演唱会【44.7G】1080P蓝光原盘
Ayumi hamasaki PREMIUM COUNTDOWN LIVE 2008-2009[滨崎步2008-2009信念倒计时演唱会][44.80]
滨崎步2008-2009信念倒计时演唱会 (2009)

曲目

1. Green
2. Will
3. Vogue
4. Honey
5. Angel's Song
6. End the World
7. Heartplace
8. Real me
9. And Then
10. Naturally
11. In The Corner
12. Powder Snow
13. Hope or Pain
14. Over
15. Scar
16. Signal
17. Hana
18. Too Late
19. Unite
20. Surreal Evolution Surreal
21. Who
22. Trauma
23. Independent
24. Everywhere Nowhere
25. Mirrorcle World
26. Days
27. For My Dear
28. Flower Garden
29. Boys&Girls
30. My All
主音唯一码
lgych-00318
文件大小
44.7G
百度网盘下载
提取码
xg97
文件解压密码
滨崎步<Ayumi Hamasaki Premium Countdown Live 2008-2009>信念倒计时演唱会【44.7G】1080P蓝光原盘 演唱会视频参数信息
演唱会参数信息

DISC INFO:

Disc Title:     lgych-00318 滨崎步 Ayumi Hamasaki Premium Countdown Live 2008-2009 信念倒计时演唱会【44.7G】1080P蓝光原盘
Disc Size:      48,103,207,100 bytes
Protection:     AACS
BD-Java:        No
BDInfo:         0.5.8

PLAYLIST REPORT:

Name:                   00000.MPLS
Length:                 3:18:19.053 (h:m:s.ms)
Size:                   0 bytes
Total Bitrate:          0.00 Mbps

VIDEO:

Codec                   Bitrate             Description     
-----                   -------             -----------     
MPEG-4 AVC Video        0 kbps              1080i / 29.970 fps / 16:9 / High Profile 4.1

AUDIO:

Codec                           Language        Bitrate         Description     
-----                           --------        -------         -----------     
LPCM Audio                      Japanese        2304 kbps       2.0 / 48 kHz / 2304 kbps / 24-bit
DTS-HD Master Audio             Japanese        0 kbps          5.1 / 48 kHz / 24-bit (DTS Core: 5.1 / 48 kHz / 1509 kbps / 24-bit)

FILES:

Name            Time In         Length          Size            Total Bitrate   
----            -------         ------          ----            -------------   
00000.M2TS      0:00:00.000     1:23:05.480     0               0               
00001.M2TS      1:23:05.480     1:49:21.221     0               0               
00003.M2TS      3:12:26.701     0:05:52.351     0               0               
为您推荐 滨崎步 相关的演唱会视频
主音唯一码
lgych-00318
文件大小
44.7G
百度网盘下载
提取码
xg97
文件解压密码
最新天气预报