> 滨崎步<Ayumi Hamasaki Countdown Live 2009-2010 A -Future Classics->跨年演唱会【39.7G】1080P蓝光原盘
歌 手 : 滨崎步
主音唯一码 : lgych-00319
视频大小 : 39.7G主音网微信 : tao18074625335
创建时间 : 2017-09-17主音网QQ客服 :2268809533
视频目录 : 蓝光演唱会
主音网邮箱 :bimuyu#zhuyin.com(请把#改成@)
主音唯一码
lgych-00319
文件大小
39.7G
百度网盘下载
提取码
5nnu
文件解压密码
滨崎步<Ayumi Hamasaki Countdown Live 2009-2010 A -Future Classics->跨年演唱会【39.7G】1080P蓝光原盘 视频截图












滨崎步<Ayumi Hamasaki Countdown Live 2009-2010 A -Future Classics->跨年演唱会【39.7G】1080P蓝光原盘 视频剧情截图
滨崎步<Ayumi Hamasaki Countdown Live 2009-2010 A -Future Classics->跨年演唱会【39.7G】1080P蓝光原盘 演唱会曲目介绍
滨崎步 Ayumi Hamasaki Countdown Live 2009-2010 A -Future Classics- 跨年演唱会【39.7G】1080P蓝光原盘
Ayumi hamasaki COUNTDOWN LIVE 2009-2010 A -Future Classics 滨崎步2009-2010跨年演唱会[39.76]
滨崎步2009-2010跨年演唱会 (2009)

曲目

01. I am...
02. Moments
03. STEP you
04. EnergizE
05. About You
06. momentum
07. You were...
08. Pride
09. INSPIRE
10. Because of You
11. 1 LOVE
12. until that Day...
13. Humming7/4
14. evolution
15. Startin'
[encore]
16. teddy bear
17. Sunrise ~LOVE is ALL ~
18. Boys & Girls
19. RED LINE ~for TA ~
主音唯一码
lgych-00319
文件大小
39.7G
百度网盘下载
提取码
5nnu
文件解压密码
滨崎步<Ayumi Hamasaki Countdown Live 2009-2010 A -Future Classics->跨年演唱会【39.7G】1080P蓝光原盘 演唱会视频参数信息
演唱会参数信息

DISC INFO:

Disc Title:     lgych-00319 滨崎步 Ayumi Hamasaki Countdown Live 2009-2010 A -Future Classics- 跨年演唱会【39.7G】1080P蓝光原盘
Disc Size:      42,695,503,768 bytes
Protection:     AACS
BD-Java:        No
BDInfo:         0.5.8

PLAYLIST REPORT:

Name:                   00000.MPLS
Length:                 2:28:10.381 (h:m:s.ms)
Size:                   0 bytes
Total Bitrate:          0.00 Mbps

VIDEO:

Codec                   Bitrate             Description     
-----                   -------             -----------     
MPEG-4 AVC Video        0 kbps              1080i / 29.970 fps / 16:9 / High Profile 4.1

AUDIO:

Codec                           Language        Bitrate         Description     
-----                           --------        -------         -----------     
LPCM Audio                      Japanese        2304 kbps       2.0 / 48 kHz / 2304 kbps / 24-bit
DTS-HD Master Audio             Japanese        0 kbps          5.1 / 48 kHz / 24-bit (DTS Core: 5.1 / 48 kHz / 1509 kbps / 24-bit)

FILES:

Name            Time In         Length          Size            Total Bitrate   
----            -------         ------          ----            -------------   
00000.M2TS      0:00:00.000     1:37:44.358     0               0               
00001.M2TS      1:37:44.358     0:44:51.689     0               0               
00006.M2TS      2:22:36.047     0:05:34.333     0               0               
为您推荐 滨崎步 相关的演唱会视频
主音唯一码
lgych-00319
文件大小
39.7G
百度网盘下载
提取码
5nnu
文件解压密码
最新天气预报