> 滨崎步<Ayumi Hamasaki Countdown Live 2010-2011 A ~do it again~>除夕夜倒数演唱会【41.2G】1080P蓝光原盘
歌 手 : 滨崎步
主音唯一码 : lgych-00320
视频大小 : 41.2G主音网微信 : tao18074625335
创建时间 : 2017-09-17主音网QQ客服 :2268809533
视频目录 : 蓝光演唱会
主音网邮箱 :bimuyu#zhuyin.com(请把#改成@)
主音唯一码
lgych-00320
文件大小
41.2G
百度网盘下载
提取码
y36d
文件解压密码
滨崎步<Ayumi Hamasaki Countdown Live 2010-2011 A ~do it again~>除夕夜倒数演唱会【41.2G】1080P蓝光原盘 视频截图
















滨崎步<Ayumi Hamasaki Countdown Live 2010-2011 A ~do it again~>除夕夜倒数演唱会【41.2G】1080P蓝光原盘 视频剧情截图
滨崎步<Ayumi Hamasaki Countdown Live 2010-2011 A ~do it again~>除夕夜倒数演唱会【41.2G】1080P蓝光原盘 演唱会曲目介绍
滨崎步 Ayumi Hamasaki Countdown Live 2010-2011 A ~do it again~ 除夕夜倒数演唱会【41.2G】1080P蓝光原盘
Ayumi hamasaki COUNTDOWN LIVE 2010-2011 A~do it again~滨崎步2010-2011除夕夜倒数演唱会
滨崎步2010-2011除夕夜倒数演唱会 (2011)

曲目

1. snowfield
2. Last angel
3. Duty
4. is this LOVE?
5. Marionette -prelude-
6. Marionette
7. Free & Easy
8. Endless sorrow
9. Dearest|HEAVEN|CAROLS|Together When...
10. Aria
11. Humming 7/4
12. Bold & Delicious
13. Mirrorcle World
14. SEVEN DAYS WAR
15. evolution
16. Boys & Girls
17. Dream ON
18. Love song
19. Virgin Road
20. MOON
21. Trauma|AUDIENCE|Fly high
22. flower garden
23. Thank U
24. do it again
主音唯一码
lgych-00320
文件大小
41.2G
百度网盘下载
提取码
y36d
文件解压密码
滨崎步<Ayumi Hamasaki Countdown Live 2010-2011 A ~do it again~>除夕夜倒数演唱会【41.2G】1080P蓝光原盘 演唱会视频参数信息
演唱会参数信息

DISC INFO:

Disc Title:     lgych-00320 滨崎步 Ayumi Hamasaki Countdown Live 2010-2011 A ~do it again~ 除夕夜倒数演唱会【41.2G】1080P蓝光原盘
Disc Size:      44,276,323,317 bytes
Protection:     AACS
BD-Java:        Yes
BDInfo:         0.5.8

PLAYLIST REPORT:

Name:                   00000.MPLS
Length:                 2:34:30.928 (h:m:s.ms)
Size:                   0 bytes
Total Bitrate:          0.00 Mbps

VIDEO:

Codec                   Bitrate             Description     
-----                   -------             -----------     
MPEG-4 AVC Video        0 kbps              1080i / 29.970 fps / 16:9 / High Profile 4.1

AUDIO:

Codec                           Language        Bitrate         Description     
-----                           --------        -------         -----------     
LPCM Audio                      Japanese        2304 kbps       2.0 / 48 kHz / 2304 kbps / 24-bit
DTS-HD Master Audio             Japanese        0 kbps          5.1 / 48 kHz / 24-bit (DTS Core: 5.1 / 48 kHz / 1509 kbps / 24-bit)

FILES:

Name            Time In         Length          Size            Total Bitrate   
----            -------         ------          ----            -------------   
00000.M2TS      0:00:00.000     1:33:37.945     0               0               
00001.M2TS      1:33:37.945     0:52:25.142     0               0               
00002.M2TS      2:26:03.087     0:05:36.369     0               0               
00003.M2TS      2:31:39.457     0:02:51.471     0               0               
为您推荐 滨崎步 相关的演唱会视频
主音唯一码
lgych-00320
文件大小
41.2G
百度网盘下载
提取码
y36d
文件解压密码
最新天气预报