> 滨崎步<Ayumi Hamasaki Arena Tour 2012 A ~Hotel Love songs~>日本巡回演唱会【40.7G】1080P蓝光原盘
歌 手 : 滨崎步
主音唯一码 : lgych-00322
视频大小 : 40.7G主音网微信 : tao18074625335
创建时间 : 2017-09-17主音网QQ客服 :2268809533
视频目录 : 日本演唱会
主音网邮箱 :bimuyu#zhuyin.com(请把#改成@)
主音唯一码
lgych-00322
文件大小
40.7G
百度网盘下载
提取码
d3db
文件解压密码
滨崎步<Ayumi Hamasaki Arena Tour 2012 A ~Hotel Love songs~>日本巡回演唱会【40.7G】1080P蓝光原盘 视频截图










滨崎步<Ayumi Hamasaki Arena Tour 2012 A ~Hotel Love songs~>日本巡回演唱会【40.7G】1080P蓝光原盘 视频剧情截图
滨崎步<Ayumi Hamasaki Arena Tour 2012 A ~Hotel Love songs~>日本巡回演唱会【40.7G】1080P蓝光原盘 演唱会曲目介绍
滨崎步 Ayumi Hamasaki Arena Tour 2012 A ~Hotel Love songs~ 日本巡回演唱会【40.7G】1080P蓝光原盘
Ayumi hamasaki ARENA TOUR 2012 A ~HOTEL Love songs~滨崎步 - 2012年日本巡回演唱会
滨崎步 - 2012年日本巡回演唱会 (2012)

曲目

01.Happening Here
02.Song 4 u
03.feedback
04.Tell me why
05.reminds me
06.appears
07.Missing
08.a cup of tea
09.Shake It?
10.STEP you
11.NaNaNa
12.Sparkle
13.the next LOVE
14.Eyes, Smoke, Magic
15.kiss o' kill
16.Serenade in A minor
17.Ladies Night
18.Party queen
19.SURREAL ~ evolution ~ SURREAL
20.Love song
21.One Night Carnival
22.Boys & Girls
23.how beautiful you are
24.Thank U
主音唯一码
lgych-00322
文件大小
40.7G
百度网盘下载
提取码
d3db
文件解压密码
滨崎步<Ayumi Hamasaki Arena Tour 2012 A ~Hotel Love songs~>日本巡回演唱会【40.7G】1080P蓝光原盘 演唱会视频参数信息
演唱会参数信息

DISC INFO:

Disc Title:     lgych-00322 滨崎步 Ayumi Hamasaki Arena Tour 2012 A ~Hotel Love songs~ 日本巡回演唱会【40.7G】1080P蓝光原盘
Disc Size:      43,725,744,423 bytes
Protection:     AACS
BD-Java:        Yes
BDInfo:         0.5.8

PLAYLIST REPORT:

Name:                   00001.MPLS
Length:                 2:59:45.775 (h:m:s.ms)
Size:                   0 bytes
Total Bitrate:          0.00 Mbps

VIDEO:

Codec                   Bitrate             Description     
-----                   -------             -----------     
MPEG-4 AVC Video        0 kbps              1080p / 23.976 fps / 16:9 / High Profile 4.1

AUDIO:

Codec                           Language        Bitrate         Description     
-----                           --------        -------         -----------     
LPCM Audio                      Japanese        2304 kbps       2.0 / 48 kHz / 2304 kbps / 24-bit
DTS-HD Master Audio             Japanese        0 kbps          5.1 / 48 kHz / 24-bit (DTS Core: 5.1 / 48 kHz / 1509 kbps / 24-bit)

FILES:

Name            Time In         Length          Size            Total Bitrate   
----            -------         ------          ----            -------------   
00000.M2TS      0:00:00.000     2:08:53.726     0               0               
00001.M2TS      2:08:53.726     0:45:15.712     0               0               
00002.M2TS      2:54:09.439     0:05:36.336     0               0               
为您推荐 滨崎步 相关的演唱会视频
主音唯一码
lgych-00322
文件大小
40.7G
百度网盘下载
提取码
d3db
文件解压密码
最新天气预报