> 坂本真绫<Follow Me Sakamoto Maaya 20th Anniversary Live>20周年纪念演唱会2015【41.3G】1080P蓝光原盘
歌 手 : 坂本真绫
主音唯一码 : lgych-00326
视频大小 : 41.3G主音网微信 : tao18074625335
创建时间 : 2017-09-19主音网QQ客服 :2268809533
视频目录 : 蓝光演唱会
主音网邮箱 :bimuyu#zhuyin.com(请把#改成@)
主音唯一码
lgych-00326
文件大小
41.3G
百度网盘下载
提取码
a9gp
文件解压密码
坂本真绫<Follow Me Sakamoto Maaya 20th Anniversary Live>20周年纪念演唱会2015【41.3G】1080P蓝光原盘 视频截图












坂本真绫<Follow Me Sakamoto Maaya 20th Anniversary Live>20周年纪念演唱会2015【41.3G】1080P蓝光原盘 视频剧情截图
坂本真绫<Follow Me Sakamoto Maaya 20th Anniversary Live>20周年纪念演唱会2015【41.3G】1080P蓝光原盘 演唱会曲目介绍
坂本真绫 Follow Me Sakamoto Maaya 20th Anniversary Live 20周年纪念演唱会2015【41.3G】1080P蓝光原盘
[坂本真绫20周年纪念LIVE“FOLLOW ME UP”at 琦玉县超级剧场][41.35GB]
Sakamoto Maaya 20th Anniversary LIVE "FOLLOW ME" at Saitama Super Arena [2015.11.25]
坂本真绫 - 坂本真绫20周年记念LIVE“FOLLOW ME" at さいたまスーパーアリーナ

曲目

1. Introduction~幸せについて私が知っている5つの方法
2. マジックナンバー
3. スクラップ~別れの詩
4. MC1
5. ループ
6. SAVED.
7. 色彩
8. tune the rainbow
9. MC2
10. パイロット
11. 指輪
12. 奇跡の海
13. coming up
14. 20th Anniversary Medley
15. 約束はいらない
16. プラチナ
17. MC3
18. 光あれ
19. トライアングラー
20. ヘミソフィア
21. レプリカ
22. マメシバ
23. おかえりなさい
24. MC4
25. 風待ちジェット
26. シンガーソングライター
27. MC5 -ENCORE-
28. 約束はいらない -ENCORE-
29. Be mine! -ENCORE-
30. MC6 -ENCORE-
31. そのままでいいんだ -ENCORE-
32. eternal return -ENCORE-
33. MC7 -ENCORE-
34. これから -ENCORE-
35. MC8 -ENCORE-
36. ポケットを空にして -ENCORE-
37. ENDING -ENCORE- 
主音唯一码
lgych-00326
文件大小
41.3G
百度网盘下载
提取码
a9gp
文件解压密码
坂本真绫<Follow Me Sakamoto Maaya 20th Anniversary Live>20周年纪念演唱会2015【41.3G】1080P蓝光原盘 演唱会视频参数信息
演唱会参数信息

DISC INFO:

Disc Title:     lgych-00326 坂本真绫 Follow Me Sakamoto Maaya 20th Anniversary Live 20周年纪念演唱会2015【41.3G】1080P蓝光原盘
Disc Size:      44,392,930,273 bytes
Protection:     AACS
BD-Java:        No
BDInfo:         0.5.8

PLAYLIST REPORT:

Name:                   00001.MPLS
Length:                 3:08:04.840 (h:m:s.ms)
Size:                   0 bytes
Total Bitrate:          0.00 Mbps

VIDEO:

Codec                   Bitrate             Description     
-----                   -------             -----------     
MPEG-4 AVC Video        0 kbps              1080i / 29.970 fps / 16:9 / High Profile 4.1

AUDIO:

Codec                           Language        Bitrate         Description     
-----                           --------        -------         -----------     
LPCM Audio                      Japanese        2304 kbps       2.0 / 48 kHz / 2304 kbps / 24-bit
LPCM Audio                      Japanese        6912 kbps       5.1 / 48 kHz / 6912 kbps / 24-bit

FILES:

Name            Time In         Length          Size            Total Bitrate   
----            -------         ------          ----            -------------   
00003.M2TS      0:00:00.000     1:11:20.409     0               0               
00004.M2TS      1:11:20.409     1:04:16.285     0               0               
00005.M2TS      2:15:36.695     0:52:09.126     0               0               
00006.M2TS      3:07:45.821     0:00:19.019     0               0               
为您推荐 坂本真绫 相关的演唱会视频
主音唯一码
lgych-00326
文件大小
41.3G
百度网盘下载
提取码
a9gp
文件解压密码
最新天气预报