> 放浪兄弟 佐藤笃志<EXILE ATSUSHI Music+Special Solo Live in 夏威夷>蓝光MV+现场2014.双碟【55G】1080P蓝光原盘
歌 手 : 放浪兄弟,EXILE,佐藤笃志
主音唯一码 : lgych-00328
视频大小 : 55.2G主音网微信 : tao18074625335
创建时间 : 2017-09-19主音网QQ客服 :2268809533
视频目录 : 日本演唱会
主音网邮箱 :bimuyu#zhuyin.com(请把#改成@)
主音唯一码
lgych-00328
文件大小
55.2G
百度网盘下载
提取码
g8ca
文件解压密码
放浪兄弟 佐藤笃志<EXILE ATSUSHI Music+Special Solo Live in 夏威夷>蓝光MV+现场2014.双碟【55G】1080P蓝光原盘 视频截图
















放浪兄弟 佐藤笃志<EXILE ATSUSHI Music+Special Solo Live in 夏威夷>蓝光MV+现场2014.双碟【55G】1080P蓝光原盘 视频剧情截图
放浪兄弟 佐藤笃志<EXILE ATSUSHI Music+Special Solo Live in 夏威夷>蓝光MV+现场2014.双碟【55G】1080P蓝光原盘 演唱会曲目介绍
放浪兄弟 佐藤笃志 EXILE ATSUSHI Music+Special Solo Live in 夏威夷 蓝光MV+现场2014.双碟【55G】1080P蓝光原盘
EXILE ATSUSHI - Music

曲目

Disc1
Music Video+ Document
1.MAKE A MIRACLE
2.MELROSE ?愛さない約束
3.Real Valentine
4.それでも、生きてゆく
5.道しるべ
6.懺悔
7.ふるさと
8.煌きの歌
9.愛燦燦
10.青い龍
11.我愿意  林志玲
12.LIFE -Album Document-
※アルバム「Music」制作の裏側を映像にしたドキュメンタリー

Disc2
EXILE ATSUSHI SPECIAL SOLO LIVE in HAWAII
1.What's going on
2.Choo Choo TRAIN
3.Hawaiian Paradise
4.Meka Mahalo
5.Night Bird
6.AMANOGAWA
7.酒と泪と男と女
8.君を忘れない
9.慕情
10.EXILE ATSUSHI SOLOメドレー
(Change My Mind / Anoter World / Ooo Baby / いつかきっと  / 道しるべ
/ 願い / MELROSE ?愛さない約束  / You're my “HERO")
11.涙の数だけ
主音唯一码
lgych-00328
文件大小
55.2G
百度网盘下载
提取码
g8ca
文件解压密码
放浪兄弟 佐藤笃志<EXILE ATSUSHI Music+Special Solo Live in 夏威夷>蓝光MV+现场2014.双碟【55G】1080P蓝光原盘 演唱会视频参数信息
演唱会参数信息

DISC INFO:

Disc Title:     lgych-00328 放浪兄弟 佐藤笃志 EXILE ATSUSHI Music+Special Solo Live in 夏威夷 蓝光MV+现场2014.双碟【55G】1080P蓝光原盘
Disc Size:      28,858,307,804 bytes
Protection:     AACS
BD-Java:        No
BDInfo:         0.5.8

PLAYLIST REPORT:

Name:                   00000.MPLS
Length:                 1:42:27.407 (h:m:s.ms)
Size:                   0 bytes
Total Bitrate:          0.00 Mbps

VIDEO:

Codec                   Bitrate             Description     
-----                   -------             -----------     
MPEG-4 AVC Video        0 kbps              1080i / 29.970 fps / 16:9 / High Profile 4.1

AUDIO:

Codec                           Language        Bitrate         Description     
-----                           --------        -------         -----------     
LPCM Audio                      Japanese        2304 kbps       2.0 / 48 kHz / 2304 kbps / 24-bit

FILES:

Name            Time In         Length          Size            Total Bitrate   
----            -------         ------          ----            -------------   
00001.M2TS      0:00:00.000     0:06:28.421     0               0               
00002.M2TS      0:06:28.421     0:51:22.279     0               0               
00003.M2TS      0:57:50.700     0:44:36.707     0               0               
为您推荐 放浪兄弟,EXILE,佐藤笃志 相关的演唱会视频
主音唯一码
lgych-00328
文件大小
55.2G
百度网盘下载
提取码
g8ca
文件解压密码
最新天气预报