> 东京女子流<1st Best Album Kirari+Hardboiled Night>专辑蓝光碟精选MV+现场演唱会2015【65G】1080P蓝光原盘.双碟
歌 手 : 东京女子流
主音唯一码 : lgych-00332
视频大小 : 65.3G主音网微信 : tao18074625335
创建时间 : 2017-09-20主音网QQ客服 :2268809533
视频目录 : 日本演唱会
主音网邮箱 :bimuyu#zhuyin.com(请把#改成@)
主音唯一码
lgych-00332
文件大小
65.3G
百度网盘下载
提取码
qv89
文件解压密码
东京女子流<1st Best Album Kirari+Hardboiled Night>专辑蓝光碟精选MV+现场演唱会2015【65G】1080P蓝光原盘.双碟 视频截图


























东京女子流<1st Best Album Kirari+Hardboiled Night>专辑蓝光碟精选MV+现场演唱会2015【65G】1080P蓝光原盘.双碟 视频剧情截图
东京女子流<1st Best Album Kirari+Hardboiled Night>专辑蓝光碟精选MV+现场演唱会2015【65G】1080P蓝光原盘.双碟 演唱会曲目介绍
东京女子流 1st Best Album Kirari+Hardboiled Night 专辑蓝光碟精选MV+现场演唱会2015【65G】1080P蓝光原盘.双碟

曲目

Disc1
1. キラリ☆ (Music Video)
2. おんなじキモチ (Music Video)
3. 頑張って いつだって 信じてる (Music Video)
4. ヒマワリと星屑 (Music Video)
5. Love like candy floss (Music Video)
6. 鼓動の秘密 (Music Video)
7. サヨナラ、ありがとう。 (Music Video)
8. Limited addiction (Music Video)
9. Liar (Music Video)
10. Rock you! (Music Video)
11. 追憶 -Single Version- (Music Video)
12. LolitA☆Strawberry in summer (Music Video)
13. Bad Flower (Music Video)
14. 約束 (Music Video)
15. 運命 (Music Video)
16. Get The Star (Music Video)
17. ちいさな奇跡 (Music Video)
18. Partition Love (Music Video)
19. 月の気まぐれ (Music Video)
20. 十字架 ~映画「学校の怪談 -呪いの言霊-」Ver.~ (Music Video)
21. Killing Me Softly (Music Video)
22. ヒマワリと星屑 -English Version- (Music Video)
23. Say long goodbye (Music Video)

Disc2
HARDBOILED NIGHT 全映像+LIVE映像
主音唯一码
lgych-00332
文件大小
65.3G
百度网盘下载
提取码
qv89
文件解压密码
东京女子流<1st Best Album Kirari+Hardboiled Night>专辑蓝光碟精选MV+现场演唱会2015【65G】1080P蓝光原盘.双碟 演唱会视频参数信息
演唱会参数信息

DISC INFO:

Disc Title:     lgych-00332 东京女子流 1st Best Album Kirari+Hardboiled Night 专辑蓝光碟精选MV+现场演唱会2015【65G】1080P蓝光原盘.双碟
Disc Size:      35,472,198,592 bytes
Protection:     AACS
BD-Java:        No
BDInfo:         0.5.8

PLAYLIST REPORT:

Name:                   00024.MPLS
Length:                 2:02:37.449 (h:m:s.ms)
Size:                   0 bytes
Total Bitrate:          0.00 Mbps

VIDEO:

Codec                   Bitrate             Description     
-----                   -------             -----------     
MPEG-4 AVC Video        0 kbps              1080i / 29.970 fps / 16:9 / High Profile 4.1

AUDIO:

Codec                           Language        Bitrate         Description     
-----                           --------        -------         -----------     
LPCM Audio                      Japanese        1536 kbps       2.0 / 48 kHz / 1536 kbps / 16-bit

FILES:

Name            Time In         Length          Size            Total Bitrate   
----            -------         ------          ----            -------------   
00001.M2TS      0:00:00.000     0:05:56.823     0               0               
00002.M2TS      0:05:56.823     0:04:26.633     0               0               
00003.M2TS      0:10:23.456     0:05:10.677     0               0               
00004.M2TS      0:15:34.133     0:04:33.306     0               0               
为您推荐 东京女子流 相关的演唱会视频
主音唯一码
lgych-00332
文件大小
65.3G
百度网盘下载
提取码
qv89
文件解压密码
最新天气预报