> 早安家族<Hello! Project - Petit Best 15>MV精选合集2015【20.3G】1080P蓝光原盘
歌 手 : 早安家族,田中丽奈,高桥爱,嗣永桃子,久住小春,前田彩里
主音唯一码 : lgych-00333
视频大小 : 20.3G主音网微信 : tao18074625335
创建时间 : 2017-09-20主音网QQ客服 :2268809533
视频目录 : 日本演唱会
主音网邮箱 :bimuyu#zhuyin.com(请把#改成@)
主音唯一码
lgych-00333
文件大小
20.3G
百度网盘下载
提取码
4ykr
文件解压密码
早安家族<Hello! Project - Petit Best 15>MV精选合集2015【20.3G】1080P蓝光原盘 视频截图
























早安家族<Hello! Project - Petit Best 15>MV精选合集2015【20.3G】1080P蓝光原盘 视频剧情截图
早安家族<Hello! Project - Petit Best 15>MV精选合集2015【20.3G】1080P蓝光原盘 演唱会曲目介绍
早安家族 Hello! Project - Petit Best 15 MV精选合集2015【20.3G】1080P蓝光原盘
早安家族MV精选15 (2015)][Hello! Project - Petit Best 15][ 20.40]

曲目

1. 君の代わりは居やしない
2. Password is 0
3. 1億3千万総ダイエット王国
4. 普通、アイドル10年やってらんないでしょ!?
5. Love take it all
6. 悲しきヘブン (Single Version)
7. エイティーン エモーション
8. 地球は今日も愛を育む
9. アレコレしたい!
10. 風に吹かれて
11. シャバダバ ドゥ~
12. 嗚呼、素晴らしき日々よ
13. Dream Last Train
14. 木立を抜ける風のように
15. 見返り美人 (Close-up Ver.)
16. 大人なのよ! (Another Ver.)
17. The Power (Close-up Ver.)
18. ミステリーナイト! (Close-up Ver.)
19. ブラックバタフライ (Close-up Ver.)
主音唯一码
lgych-00333
文件大小
20.3G
百度网盘下载
提取码
4ykr
文件解压密码
早安家族<Hello! Project - Petit Best 15>MV精选合集2015【20.3G】1080P蓝光原盘 演唱会视频参数信息
演唱会参数信息

DISC INFO:

Disc Title:     lgych-00333 早安家族 Hello! Project - Petit Best 15 MV精选合集2015【20.3G】1080P蓝光原盘
Disc Size:      21,899,065,372 bytes
Protection:     AACS
BD-Java:        No
BDInfo:         0.5.8

PLAYLIST REPORT:

Name:                   00000.MPLS
Length:                 1:31:39.260 (h:m:s.ms)
Size:                   0 bytes
Total Bitrate:          0.00 Mbps

VIDEO:

Codec                   Bitrate             Description     
-----                   -------             -----------     
MPEG-4 AVC Video        0 kbps              1080i / 29.970 fps / 16:9 / High Profile 4.1

AUDIO:

Codec                           Language        Bitrate         Description     
-----                           --------        -------         -----------     
LPCM Audio                      Japanese        1536 kbps       2.0 / 48 kHz / 1536 kbps / 16-bit

FILES:

Name            Time In         Length          Size            Total Bitrate   
----            -------         ------          ----            -------------   
00040.M2TS      0:00:00.000     0:04:39.779     0               0               
00001.M2TS      0:04:39.779     0:04:37.043     0               0               
00002.M2TS      0:09:16.822     0:04:41.481     0               0               
00003.M2TS      0:13:58.304     0:05:48.481     0               0               
为您推荐 早安家族,田中丽奈,高桥爱,嗣永桃子,久住小春,前田彩里 相关的演唱会视频
主音唯一码
lgych-00333
文件大小
20.3G
百度网盘下载
提取码
4ykr
文件解压密码
最新天气预报