> 平野绫<Aya Hirano - Special Live 2010 ~Kiss me~>东京赤坂BLITZ演唱会【38.1G】1080P蓝光原盘
歌 手 : 平野绫,Aya Hirano
主音唯一码 : lgych-00335
视频大小 : 38.1G主音网微信 : tao18074625335
创建时间 : 2017-09-21主音网QQ客服 :2268809533
视频目录 : 蓝光演唱会
主音网邮箱 :bimuyu#zhuyin.com(请把#改成@)
主音唯一码
lgych-00335
文件大小
38.1G
百度网盘下载
提取码
r93x
文件解压密码
平野绫<Aya Hirano - Special Live 2010 ~Kiss me~>东京赤坂BLITZ演唱会【38.1G】1080P蓝光原盘 视频截图


















平野绫<Aya Hirano - Special Live 2010 ~Kiss me~>东京赤坂BLITZ演唱会【38.1G】1080P蓝光原盘 视频剧情截图
平野绫<Aya Hirano - Special Live 2010 ~Kiss me~>东京赤坂BLITZ演唱会【38.1G】1080P蓝光原盘 演唱会曲目介绍
平野绫 Aya Hirano - Special Live 2010 ~Kiss me~ 东京赤坂BLITZ演唱会【38.1G】1080P蓝光原盘
平野绫2010演唱会 Aya Hirano - Special Live 2010 ~Kiss me~ [2011.05.03][42.17]
平野绫 - Special Live 2010 ~Kiss me~

曲目

1.讃美歌(106)
2.Kiss me
3.明日のプリズム
4.HERO
5.MonStAR
6.OH! My Darlin'
7.ラブソング
8.冒険でしょでしょ?
9.LocK-oN
10.キセキノイロ
11.ダリア
12.スピード☆スター
13.LOVE★GUN
14.Set me free
15.Hysteric Barbie
16.Super Driver
17.星のカケラ
18.For you
19.ヨロコビの歌
20.アイシテ!~Christmas メドレー
21.RIOT GIRL
22.Unnamed world
主音唯一码
lgych-00335
文件大小
38.1G
百度网盘下载
提取码
r93x
文件解压密码
平野绫<Aya Hirano - Special Live 2010 ~Kiss me~>东京赤坂BLITZ演唱会【38.1G】1080P蓝光原盘 演唱会视频参数信息
演唱会参数信息

DISC INFO:

Disc Title:     lgych-00335 平野绫 Aya Hirano - Special Live 2010 ~Kiss me~ 东京赤坂BLITZ演唱会【38.1G】1080P蓝光原盘
Disc Size:      40,984,517,798 bytes
Protection:     AACS
BD-Java:        No
BDInfo:         0.5.8

PLAYLIST REPORT:

Name:                   00000.MPLS
Length:                 2:07:53.899 (h:m:s.ms)
Size:                   0 bytes
Total Bitrate:          0.00 Mbps

VIDEO:

Codec                   Bitrate             Description     
-----                   -------             -----------     
MPEG-4 AVC Video        0 kbps              1080i / 29.970 fps / 16:9 / High Profile 4.1

AUDIO:

Codec                           Language        Bitrate         Description     
-----                           --------        -------         -----------     
Dolby TrueHD Audio              Japanese        0 kbps          5.1 / 48 kHz / 16-bit (AC3 Embedded: 5.1 / 48 kHz / 640 kbps)
LPCM Audio                      Japanese        1536 kbps       2.0 / 48 kHz / 1536 kbps / 16-bit

FILES:

Name            Time In         Length          Size            Total Bitrate   
----            -------         ------          ----            -------------   
00000.M2TS      0:00:00.000     1:24:33.635     0               0               
00001.M2TS      1:24:33.635     0:43:13.924     0               0               
00009.M2TS      2:07:47.559     0:00:06.339     0               0               
为您推荐 平野绫,Aya Hirano 相关的演唱会视频
主音唯一码
lgych-00335
文件大小
38.1G
百度网盘下载
提取码
r93x
文件解压密码
最新天气预报