> Kalafina 卡拉菲娜<Kalafina Live Tour 2013 Consolation Special Final>东京演唱会【43.1G】1080P蓝光原盘
歌 手 : Kalafina,卡拉菲娜,大滝若菜,洼田启子,Hikaru
主音唯一码 : lgych-00337
视频大小 : 43.1G主音网微信 : tao18074625335
创建时间 : 2017-09-22主音网QQ客服 :2268809533
视频目录 : 日本演唱会
主音网邮箱 :bimuyu#zhuyin.com(请把#改成@)
主音唯一码
lgych-00337
文件大小
43.1G
百度网盘下载
提取码
8mzb
文件解压密码
Kalafina 卡拉菲娜<Kalafina Live Tour 2013 Consolation Special Final>东京演唱会【43.1G】1080P蓝光原盘 视频截图




















Kalafina 卡拉菲娜<Kalafina Live Tour 2013 Consolation Special Final>东京演唱会【43.1G】1080P蓝光原盘 视频剧情截图
Kalafina 卡拉菲娜<Kalafina Live Tour 2013 Consolation Special Final>东京演唱会【43.1G】1080P蓝光原盘 演唱会曲目介绍
Kalafina 卡拉菲娜 Kalafina Live Tour 2013 Consolation Special Final 东京演唱会【43.1G】1080P蓝光原盘

曲目

1. al fine ~ consolation
2. Kyrie
3. ~ MC-1 ~
4. 胸の行方
5. Door
6. moonfesta~ムーンフェスタ~
7. 花束
8. red moon
9. Magia[quattro]
10. 木苺の茂みに
11. 満天
12. to the beginning
13. when the fairy tale ends
14. fairytale
15. magnolia
16. destination unknown
17. signal
18. obbligato
19. 音楽
20. ~ MC-2 ~
21. 未来
22. al fine ~ ひかりふる ~Encore~
23. ~ MC-3 ~ ~Encore~
24. 光の旋律 ~Encore~
25. ~ MC-4 ~ ~Encore~
26. 夢の大地 ~Encore~
27. END ROLL ~Encore~
主音唯一码
lgych-00337
文件大小
43.1G
百度网盘下载
提取码
8mzb
文件解压密码
Kalafina 卡拉菲娜<Kalafina Live Tour 2013 Consolation Special Final>东京演唱会【43.1G】1080P蓝光原盘 演唱会视频参数信息
演唱会参数信息

DISC INFO:

Disc Title:     lgych-00337 Kalafina 卡拉菲娜 Kalafina Live Tour 2013 Consolation Special Final 东京演唱会【43.1G】1080P蓝光原盘
Disc Size:      46,350,628,830 bytes
Protection:     AACS
BD-Java:        No
BDInfo:         0.5.8

PLAYLIST REPORT:

Name:                   00001.MPLS
Length:                 2:47:53.063 (h:m:s.ms)
Size:                   0 bytes
Total Bitrate:          0.00 Mbps

VIDEO:

Codec                   Bitrate             Description     
-----                   -------             -----------     
MPEG-4 AVC Video        0 kbps              1080p / 23.976 fps / 16:9 / High Profile 4.1

AUDIO:

Codec                           Language        Bitrate         Description     
-----                           --------        -------         -----------     
LPCM Audio                      Japanese        2304 kbps       2.0 / 48 kHz / 2304 kbps / 24-bit

FILES:

Name            Time In         Length          Size            Total Bitrate   
----            -------         ------          ----            -------------   
00002.M2TS      0:00:00.000     2:24:41.673     0               0               
00003.M2TS      2:24:41.673     0:23:03.381     0               0               
00004.M2TS      2:47:45.055     0:00:08.007     0               0               
为您推荐 Kalafina,卡拉菲娜,大滝若菜,洼田启子,Hikaru 相关的演唱会视频
主音唯一码
lgych-00337
文件大小
43.1G
百度网盘下载
提取码
8mzb
文件解压密码
最新天气预报