> GLAY乐队<GLAY 20th Anniversary Live Box VOL.1>20周年纪念演唱
歌 手 : GLAY乐队,TERU,TAKURO
主音唯一码 : lgych-00338
视频大小 : 96G主音网微信 : zhuyinwang01
创建时间 : 2018-09-10主音网QQ客服 :2305540263
视频目录 : 日本演唱会
主音网邮箱 :bimuyu#zhuyin.com(请把#改成@)
主音唯一码
lgych-00338
文件大小
96G
百度网盘下载
提取码
qjpk
文件解压密码
GLAY乐队<GLAY 20th Anniversary Live Box VOL.1>20周年纪念演唱 视频截图




















GLAY乐队<GLAY 20th Anniversary Live Box VOL.1>20周年纪念演唱 视频剧情截图
GLAY乐队<GLAY 20th Anniversary Live Box VOL.1>20周年纪念演唱 演唱会曲目介绍
GLAY乐队 GLAY 20th Anniversary Live Box VOL.1 20周年纪念演唱会三碟合集2014【96G】1080P蓝光原盘

曲目

D1

1.GLOBAL COMMUNICATION
2.Cynical
3.MERMAID
4.WET DREAM
5.FATSOUNDS
6.サバイバル
7.pure soul
8.summer FM
9.Super Ball 425
10.口唇
11.ひとひらの自由
12.HOWEVER
13.FRIEDCHICKEN & BEER
14.ヤンバルクイナ(イノキのリズムで)
15.とまどい
16.BE WITH YOU
17.BACK-UP
18.VIVA VIVA VIVA
19.ROCK ICON
20.STAY TUNED
21.More than Love
22.SHUTTER SPEEDSのテーマ
23.誘惑
[ENCORE]
1.ずっと2人で…
2.千ノナイフガ胸ヲ刺ス
3.KISSIN' NOISE
4.COME ON!!
5.ACID HEAD
6.I'm in Love


D2

■GLAY VERB TOUR FINAL “COME TOGETHER 2008-2009”
幕張メッセ国際展示場9 10 11(2008年12月31日)

1.opening ACID HEAD
2.BEAUTIFUL DREAMER
3.誘惑
4.Cynical
5.GIANT STRONG FAUST SUPER STAR
6.ビリビリクラッシュメン
7.Lovers change fighters, cool
8.Lock on you
9.I LOVE YOUをさがしてる
10.MIRROR
11.STARLESS NIGHT
12.電気イルカ奇妙ナ嗜好
13.紅と黒のMATADORA
14.AMERICAN INNOVATION
15.彼女の"Modern…"
16.SHUTTER SPEEDSのテーマ
17.ピーク果てしなく ソウル限りなく
【COUNTDOWN】
18.VERB
[ENCORE]
1.生きてく強さ
2.I'm in Love
3.南東風
4.BURST

D3

■GLAY MOBILE Presents 5th anniversary special GLAY CHRISTMAS SHOW 2013 winter ACOUSTIC MILLION DOLLAR NIGHT
渋谷公会堂(2013年12月17日)

1.CHRISTMAS SHOW
2.虹のポケット
3.HEART SNOW ~心に降る雪~
4.DIAMOND SKIN
5.カーテンコール
6.出逢ってしまった2人
7.LOVE SLAVE
8.ROCK ICON
9.ACID HEAD
10.WHY DON'T WE MAKE YOU HAPPY
11.Miki Piano
12.ゆるぎない者達
13.電気イルカ奇妙ナ嗜好
14.CRAZY DANCE
15.彼女の"Modern…"
16.JUSTICE [from] GUILTY
17.VERB
[ENCORE]
1.1000のバイオリン
2.ホワイトロード
3.Time for Christmas
4.CHRISTMAS SHOW(Reprise)
主音唯一码
lgych-00338
文件大小
96G
百度网盘下载
提取码
qjpk
文件解压密码
GLAY乐队<GLAY 20th Anniversary Live Box VOL.1>20周年纪念演唱 演唱会视频参数信息
演唱会参数信息

DISC INFO:

Disc Title:     lgych-00338 GLAY乐队 GLAY 20th Anniversary Live Box VOL.1 20周年纪念演唱会三碟合集2014【96G】1080P蓝光原盘
Disc Size:      43,334,922,999 bytes
Protection:     AACS
BD-Java:        No
BDInfo:         0.5.8

PLAYLIST REPORT:

Name:                   00000.MPLS
Length:                 2:53:15.384 (h:m:s.ms)
Size:                   0 bytes
Total Bitrate:          0.00 Mbps

VIDEO:

Codec                   Bitrate             Description     
-----                   -------             -----------     
MPEG-4 AVC Video        0 kbps              1080i / 29.970 fps / 16:9 / High Profile 4.1

AUDIO:

Codec                           Language        Bitrate         Description     
-----                           --------        -------         -----------     
LPCM Audio                      Japanese        2304 kbps       2.0 / 48 kHz / 2304 kbps / 24-bit

SUBTITLES:

Codec                           Language        Bitrate         Description     
-----                           --------        -------         -----------     
Presentation Graphics           Japanese        0.000 kbps                      

FILES:

Name            Time In         Length          Size            Total Bitrate   
----            -------         ------          ----            -------------   
00000.M2TS      0:00:00.000     1:48:27.501     0               0               
00001.M2TS      1:48:27.501     1:04:11.814     0               0               
00003.M2TS      2:52:39.315     0:00:13.013     0               0               
00004.M2TS      2:52:52.328     0:00:23.056     0               0               
为您推荐 GLAY乐队,TERU,TAKURO 相关的演唱会视频
主音唯一码
lgych-00338
文件大小
96G
百度网盘下载
提取码
qjpk
文件解压密码
最新天气预报