> 安室奈美惠<Namie Amuro LIVE STYLE 2016-2017>巡回演唱会【38.6G】1080P蓝光原盘
歌 手 : 安室奈美惠,Namie Amuro
主音唯一码 : lgych-00348
视频大小 : 38.6G主音网微信 : tao18074625335
创建时间 : 2017-09-26主音网QQ客服 :2268809533
视频目录 : 蓝光演唱会
主音网邮箱 :bimuyu#zhuyin.com(请把#改成@)
主音唯一码
lgych-00348
文件大小
38.6G
百度网盘下载
提取码
agu9
文件解压密码
安室奈美惠<Namie Amuro LIVE STYLE 2016-2017>巡回演唱会【38.6G】1080P蓝光原盘 视频截图






















安室奈美惠<Namie Amuro LIVE STYLE 2016-2017>巡回演唱会【38.6G】1080P蓝光原盘 视频剧情截图
安室奈美惠<Namie Amuro LIVE STYLE 2016-2017>巡回演唱会【38.6G】1080P蓝光原盘 演唱会曲目介绍
安室奈美惠 Namie Amuro LIVE STYLE 2016-2017 巡回演唱会【38.6G】1080P蓝光原盘
Namie Amuro - namie amuro LIVE STYLE 2016-2017 [2017.05.03][38.61 GB]

曲目

01.Stranger
02.Ballerina
03.Fly
04.Black Make Up
05.Show Me What You`ve Got
06.It
07.Rainbow
08. Red Carpet
09.Alive
10.Hands On Me
11.Hide & Seek
12.Time Has Come
13.Strike A Pose
14.Baby Don`t Cry
15.Every Woman
16.Neonlight Lipstick
17.Love Story
18.Hero
19.Mint
20.Heaven
21.Fashionista
22.Fighter
23.Scream
24.Chit Chat
25.Anything
26.Dear Diary
27.Birthday
主音唯一码
lgych-00348
文件大小
38.6G
百度网盘下载
提取码
agu9
文件解压密码
安室奈美惠<Namie Amuro LIVE STYLE 2016-2017>巡回演唱会【38.6G】1080P蓝光原盘 演唱会视频参数信息
演唱会参数信息

DISC INFO:

Disc Title:     lgych-00348 安室奈美惠 Namie Amuro LIVE STYLE 2016-2017 巡回演唱会【38.6G】1080P蓝光原盘
Disc Size:      41,452,318,740 bytes
Protection:     AACS
BD-Java:        No
BDInfo:         0.5.8

PLAYLIST REPORT:

Name:                   00001.MPLS
Length:                 1:57:27.081 (h:m:s.ms)
Size:                   0 bytes
Total Bitrate:          0.00 Mbps

VIDEO:

Codec                   Bitrate             Description     
-----                   -------             -----------     
MPEG-4 AVC Video        0 kbps              1080p / 23.976 fps / 16:9 / High Profile 4.1

AUDIO:

Codec                           Language        Bitrate         Description     
-----                           --------        -------         -----------     
LPCM Audio                      Japanese        4608 kbps       2.0 / 96 kHz / 4608 kbps / 24-bit

FILES:

Name            Time In         Length          Size            Total Bitrate   
----            -------         ------          ----            -------------   
00001.M2TS      0:00:00.000     0:23:50.762     0               0               
00002.M2TS      0:23:50.762     0:00:04.754     0               0               
00003.M2TS      0:23:55.517     0:02:45.498     0               0               
为您推荐 安室奈美惠,Namie Amuro 相关的演唱会视频
主音唯一码
lgych-00348
文件大小
38.6G
百度网盘下载
提取码
agu9
文件解压密码
最新天气预报