> 今井麻美<Asami Imai Music Video Collection 2013-2015>蓝光MV合集【11.4G】1080P蓝光原盘
歌 手 : 今井麻美,Asami Imai
主音唯一码 : lgych-00350
视频大小 : 11.4G主音网微信 : tao18074625335
创建时间 : 2017-09-27主音网QQ客服 :2268809533
视频目录 : 蓝光演唱会
主音网邮箱 :bimuyu#zhuyin.com(请把#改成@)
主音唯一码
lgych-00350
文件大小
11.4G
百度网盘下载
提取码
mhf4
文件解压密码
今井麻美<Asami Imai Music Video Collection 2013-2015>蓝光MV合集【11.4G】1080P蓝光原盘 视频截图














今井麻美<Asami Imai Music Video Collection 2013-2015>蓝光MV合集【11.4G】1080P蓝光原盘 视频剧情截图
今井麻美<Asami Imai Music Video Collection 2013-2015>蓝光MV合集【11.4G】1080P蓝光原盘 演唱会曲目介绍
今井麻美 Asami Imai Music Video Collection 2013-2015 蓝光MV合集【11.4G】1080P蓝光原盘

曲目

1.「Dear Darling」
2.OVA「コープスパーティー Tortured Souls -暴虐された魂の呪叫-」OPテーマ「星屑のリング」
3.PS Vitaソフト「超女神信仰 ノワール 激神ブラックハート」OPテーマ「漆黒のサステイン」
4.TVアニメ「プラスティック?メモリーズ」EDテーマ「朝焼けのスターマイン」
5.映画「コープスパーティー」主題歌「BABYLON ~before the daybreak」
6.「この雲の果て」
7.「little legacy」
主音唯一码
lgych-00350
文件大小
11.4G
百度网盘下载
提取码
mhf4
文件解压密码
今井麻美<Asami Imai Music Video Collection 2013-2015>蓝光MV合集【11.4G】1080P蓝光原盘 演唱会视频参数信息
演唱会参数信息

DISC INFO:

Disc Title:     lgych-00350 今井麻美 Asami Imai Music Video Collection 2013-2015 蓝光MV合集【11.4G】1080P蓝光原盘
Disc Size:      12,265,467,066 bytes
Protection:     AACS
BD-Java:        No
BDInfo:         0.5.8

PLAYLIST REPORT:

Name:                   00000.MPLS
Length:                 0:37:00.217 (h:m:s.ms)
Size:                   0 bytes
Total Bitrate:          0.00 Mbps

VIDEO:

Codec                   Bitrate             Description     
-----                   -------             -----------     
MPEG-4 AVC Video        0 kbps              1080i / 29.970 fps / 16:9 / High Profile 4.1

AUDIO:

Codec                           Language        Bitrate         Description     
-----                           --------        -------         -----------     
LPCM Audio                      Japanese        2304 kbps       2.0 / 48 kHz / 2304 kbps / 24-bit
LPCM Audio                      Japanese        1536 kbps       2.0 / 48 kHz / 1536 kbps / 16-bit

FILES:

Name            Time In         Length          Size            Total Bitrate   
----            -------         ------          ----            -------------   
00002.M2TS      0:00:00.000     0:01:59.118     0               0               
00003.M2TS      0:01:59.118     0:05:21.320     0               0               
00004.M2TS      0:07:20.439     0:05:19.819     0               0               
00005.M2TS      0:12:40.259     0:04:07.747     0               0               
为您推荐 今井麻美,Asami Imai 相关的演唱会视频
主音唯一码
lgych-00350
文件大小
11.4G
百度网盘下载
提取码
mhf4
文件解压密码
最新天气预报