> 倖田来未 幸田来未<Koda Kumi - SUMMER of LOVE>15周年纪念夏日
歌 手 : 倖田来未,幸田来未,Koda Kumi
主音唯一码 : lgych-00357
视频大小 : 19.3G主音网微信 : zhuyinwang01
创建时间 : 2018-09-10主音网QQ客服 :2305540263
视频目录 : 日本演唱会
主音网邮箱 :bimuyu#zhuyin.com(请把#改成@)
主音唯一码
lgych-00357
文件大小
19.3G
百度网盘下载
提取码
wq34
文件解压密码
倖田来未 幸田来未<Koda Kumi - SUMMER of LOVE>15周年纪念夏日 视频截图










倖田来未 幸田来未<Koda Kumi - SUMMER of LOVE>15周年纪念夏日 视频剧情截图
倖田来未 幸田来未<Koda Kumi - SUMMER of LOVE>15周年纪念夏日 演唱会曲目介绍
倖田来未 幸田来未 Koda Kumi - SUMMER of LOVE 15周年纪念夏日歌曲蓝光mv精选合集2016【19.3G】1080P蓝光原盘

曲目

01. EX TAPE (新曲)
02. HURRICANE (新曲)
03. I'll be there  ※「4 hot wave」(2006.07.26 Release)
04. 人形姫  ※「4 hot wave」(2006.07.26 Release)
05. JUICY  ※「4 hot wave」(2006.07.26 Release)
06. FREAKY  ※「FREAKY」(2007.06.27 Release)
07. Run For Your Life  ※「FREAKY」(2007.06.27 Release)
08. Lick me  ※「3 SPLASH」(2009.07.08 Release)
09. 走れ!  ※「3 SPLASH」(2009.07.08 Release)
10. That Ain’ t Cool Koda Kumi feat. Fergie  ※「MOON」(2008.06.11 Release)
11. Lollipop  ※「Gossip Candy」(2010.07.07 Release)
12. Poppin' love cocktail feat. TEEDA  ※「4 TIMES」(2011.08.17 Release)
13. V.I.P.   ※「4 TIMES」(2011.08.17 Release)
14. LALALALALA  ※「Summer Trip」(2013.07.31 Release)
15. TOUCH DOWN  ※「Summer Trip」(2013.07.31 Release)
16. HOTEL  ※「HOTEL」(2014.08.06 Release)
17. EX TAPE / HURRICANE Making Video
主音唯一码
lgych-00357
文件大小
19.3G
百度网盘下载
提取码
wq34
文件解压密码
倖田来未 幸田来未<Koda Kumi - SUMMER of LOVE>15周年纪念夏日 演唱会视频参数信息
演唱会参数信息

DISC INFO:

Disc Title:     lgych-00357 倖田来未 幸田来未 Koda Kumi - SUMMER of LOVE 15周年纪念夏日歌曲蓝光mv精选合集2016【19.3G】1080P蓝光原盘
Disc Size:      20,816,528,196 bytes
Protection:     AACS
BD-Java:        No
BDInfo:         0.5.8

PLAYLIST REPORT:

Name:                   00001.MPLS
Length:                 1:04:31.500 (h:m:s.ms)
Size:                   0 bytes
Total Bitrate:          0.00 Mbps

VIDEO:

Codec                   Bitrate             Description     
-----                   -------             -----------     
MPEG-4 AVC Video        0 kbps              1080i / 29.970 fps / 16:9 / High Profile 4.1

AUDIO:

Codec                           Language        Bitrate         Description     
-----                           --------        -------         -----------     
LPCM Audio                      Japanese        1536 kbps       2.0 / 48 kHz / 1536 kbps / 16-bit

FILES:

Name            Time In         Length          Size            Total Bitrate   
----            -------         ------          ----            -------------   
00001.M2TS      0:00:00.000     0:03:24.237     0               0               
00002.M2TS      0:03:24.237     0:04:09.282     0               0               
00003.M2TS      0:07:33.519     0:04:54.327     0               0               
00004.M2TS      0:12:27.847     0:04:35.608     0               0               
为您推荐 倖田来未,幸田来未,Koda Kumi 相关的演唱会视频
主音唯一码
lgych-00357
文件大小
19.3G
百度网盘下载
提取码
wq34
文件解压密码
最新天气预报