> 滨崎步<Ayumi Hamasaki - A ONE>专辑蓝光mv精选合集2015【9G】10
歌 手 : 滨崎步
主音唯一码 : lgych-00361
视频大小 : 9G主音网微信 : zhuyinwang01
创建时间 : 2018-09-10主音网QQ客服 :2305540263
视频目录 : 日本演唱会
主音网邮箱 :bimuyu#zhuyin.com(请把#改成@)
主音唯一码
lgych-00361
文件大小
9G
百度网盘下载
提取码
wp2x
文件解压密码
滨崎步<Ayumi Hamasaki - A ONE>专辑蓝光mv精选合集2015【9G】10 视频截图














滨崎步<Ayumi Hamasaki - A ONE>专辑蓝光mv精选合集2015【9G】10 视频剧情截图
滨崎步<Ayumi Hamasaki - A ONE>专辑蓝光mv精选合集2015【9G】10 演唱会曲目介绍
滨崎步 Ayumi Hamasaki - A ONE 专辑蓝光mv精选合集2015【9G】1080P蓝光原盘

曲目

Zutto... (video clip)
Last minute (video clip)
The GIFT (video clip)
WARNING (video clip)
Zutto... (making clip)
Last minute (making clip)
The GIFT (making clip)
WARNING (making clip)
主音唯一码
lgych-00361
文件大小
9G
百度网盘下载
提取码
wp2x
文件解压密码
滨崎步<Ayumi Hamasaki - A ONE>专辑蓝光mv精选合集2015【9G】10 演唱会视频参数信息
演唱会参数信息

DISC INFO:

Disc Title:     lgych-00361 滨崎步 Ayumi Hamasaki - A ONE 专辑蓝光mv精选合集2015【9G】1080P蓝光原盘
Disc Size:      9,743,094,912 bytes
Protection:     AACS
BD-Java:        No
BDInfo:         0.5.8

PLAYLIST REPORT:

Name:                   00000.MPLS
Length:                 0:35:02.867 (h:m:s.ms)
Size:                   0 bytes
Total Bitrate:          0.00 Mbps

VIDEO:

Codec                   Bitrate             Description     
-----                   -------             -----------     
MPEG-4 AVC Video        0 kbps              1080i / 29.970 fps / 16:9 / High Profile 4.1

AUDIO:

Codec                           Language        Bitrate         Description     
-----                           --------        -------         -----------     
LPCM Audio                      Japanese        1536 kbps       2.0 / 48 kHz / 1536 kbps / 16-bit

FILES:

Name            Time In         Length          Size            Total Bitrate   
----            -------         ------          ----            -------------   
00001.M2TS      0:00:00.000     0:04:46.319     0               0               
00002.M2TS      0:04:46.319     0:04:32.305     0               0               
00003.M2TS      0:09:18.624     0:04:10.283     0               0               
为您推荐 滨崎步 相关的演唱会视频
主音唯一码
lgych-00361
文件大小
9G
百度网盘下载
提取码
wp2x
文件解压密码
最新天气预报