> 欧美热门歌曲排行榜精选<US Billboard Charts 2012-2013>精品欧美MV.04辑【19.2G】1080P蓝光原盘
歌 手 : 卢克布莱恩
主音唯一码 : lgych-00364
视频大小 : 19.2G主音网微信 : tao18074625335
创建时间 : 2017-10-04主音网QQ客服 :2268809533
视频目录 : 欧美演唱会
主音网邮箱 :bimuyu#zhuyin.com(请把#改成@)
主音唯一码
lgych-00364
文件大小
19.2G
百度网盘下载
提取码
abak
文件解压密码
欧美热门歌曲排行榜精选<US Billboard Charts 2012-2013>精品欧美MV.04辑【19.2G】1080P蓝光原盘 视频截图
















欧美热门歌曲排行榜精选<US Billboard Charts 2012-2013>精品欧美MV.04辑【19.2G】1080P蓝光原盘 视频剧情截图
欧美热门歌曲排行榜精选<US Billboard Charts 2012-2013>精品欧美MV.04辑【19.2G】1080P蓝光原盘 演唱会曲目介绍
欧美热门歌曲排行榜精选 US Billboard Charts 2012-2013 精品欧美MV.04辑【19.2G】1080P蓝光原盘
美国公告牌音乐排行榜
曲目

见截图
主音唯一码
lgych-00364
文件大小
19.2G
百度网盘下载
提取码
abak
文件解压密码
欧美热门歌曲排行榜精选<US Billboard Charts 2012-2013>精品欧美MV.04辑【19.2G】1080P蓝光原盘 演唱会视频参数信息
演唱会参数信息

DISC INFO:

Disc Title:     lgych-00364 欧美热门歌曲排行榜精选 US Billboard Charts 2012-2013 精品欧美MV.04辑【19.2G】1080P蓝光原盘
Disc Size:      20,697,954,982 bytes
Protection:     AACS
BD-Java:        No
BDInfo:         0.5.8

PLAYLIST REPORT:

Name:                   00000.MPLS
Length:                 1:18:35.885 (h:m:s.ms)
Size:                   0 bytes
Total Bitrate:          0.00 Mbps

VIDEO:

Codec                   Bitrate             Description     
-----                   -------             -----------     
MPEG-4 AVC Video        0 kbps              1080p / 23.976 fps / 16:9 / High Profile 4.1

AUDIO:

Codec                           Language        Bitrate         Description     
-----                           --------        -------         -----------     
LPCM Audio                      English         1536 kbps       2.0 / 48 kHz / 1536 kbps / 16-bit

FILES:

Name            Time In         Length          Size            Total Bitrate   
----            -------         ------          ----            -------------   
00000.M2TS      0:00:00.000     0:03:08.375     0               0               
00002.M2TS      0:03:08.375     0:05:04.515     0               0               
00003.M2TS      0:08:12.890     0:02:36.945     0               0               
为您推荐 卢克布莱恩 相关的演唱会视频
主音唯一码
lgych-00364
文件大小
19.2G
百度网盘下载
提取码
abak
文件解压密码
最新天气预报