> 灰色银币 Dir En Grey<ARCHE专辑>蓝光特典部分2014【14.4G】1080P蓝光原盘
歌 手 : 灰色银币,DirEnGrey
主音唯一码 : lgych-00378
视频大小 : 14.4G主音网微信 : tao18074625335
创建时间 : 2017-12-08主音网QQ客服 :2268809533
视频目录 : 日本演唱会
主音网邮箱 :bimuyu#zhuyin.com(请把#改成@)
主音唯一码
lgych-00378
文件大小
14.4G
百度网盘下载
提取码
u2cm
文件解压密码
灰色银币 Dir En Grey<ARCHE专辑>蓝光特典部分2014【14.4G】1080P蓝光原盘 视频截图












灰色银币 Dir En Grey<ARCHE专辑>蓝光特典部分2014【14.4G】1080P蓝光原盘 视频剧情截图
灰色银币 Dir En Grey<ARCHE专辑>蓝光特典部分2014【14.4G】1080P蓝光原盘 演唱会曲目介绍
灰色银币 Dir En Grey ARCHE专辑 蓝光特典部分2014【14.4G】1080P蓝光原盘

曲目

Un deux (Shot In One Take)
Chain repulsion (Shot In One Take)
TOUR14 PSYCHONNECT -mode of “GAUZE”?-
2014.08.30 SHINKIBA STUDIO COAST (追加公演)
かすみ (KASUMI)
 (Tsumi to Batsu)
激しさと、この胸の中で絡み付いた灼熱の闇 (Hageshisa To, Kono Mune No Naka De Karamitsuita Shakunetsu No Yami)
BEHIND THE SCENES OF ARCHE
主音唯一码
lgych-00378
文件大小
14.4G
百度网盘下载
提取码
u2cm
文件解压密码
灰色银币 Dir En Grey<ARCHE专辑>蓝光特典部分2014【14.4G】1080P蓝光原盘 演唱会视频参数信息
演唱会参数信息

DISC INFO:

Disc Title:     lgych-00378 灰色银币 Dir En Grey蓝光特典部分2014【14.4G】1080P蓝光原盘
Disc Size:      15,568,854,116 bytes
Protection:     AACS
BD-Java:        No
BDInfo:         0.5.8

PLAYLIST REPORT:

Name:                   00001.MPLS
Length:                 0:22:34.519 (h:m:s.ms)
Size:                   0 bytes
Total Bitrate:          0.00 Mbps

VIDEO:

Codec                   Bitrate             Description     
-----                   -------             -----------     
MPEG-4 AVC Video        0 kbps              1080i / 29.970 fps / 16:9 / High Profile 4.1

AUDIO:

Codec                           Language        Bitrate         Description     
-----                           --------        -------         -----------     
LPCM Audio                      Japanese        2304 kbps       2.0 / 48 kHz / 2304 kbps / 24-bit

FILES:

Name            Time In         Length          Size            Total Bitrate   
----            -------         ------          ----            -------------   
00001.M2TS      0:00:00.000     0:03:55.001     0               0               
00002.M2TS      0:03:55.001     0:02:47.967     0               0               
00003.M2TS      0:06:42.969     0:04:18.024     0               0               
00004.M2TS      0:11:00.993     0:05:24.323     0               0               
00005.M2TS      0:16:25.317     0:06:09.202     0               0               
为您推荐 灰色银币,DirEnGrey 相关的演唱会视频
主音唯一码
lgych-00378
文件大小
14.4G
百度网盘下载
提取码
u2cm
文件解压密码
最新天气预报