> 9nine<Dream Live In Budokan>日本武道馆演唱会2014【43.4G】1080P蓝光原盘
歌 手 : 9nine,佐武宇绮,西胁彩华,吉井香奈惠,川岛海荷,村田宽奈
主音唯一码 : lgych-00386
视频大小 : 43.4G主音网微信 : tao18074625335
创建时间 : 2017-12-08主音网QQ客服 :2268809533
视频目录 : 蓝光演唱会
主音网邮箱 :bimuyu#zhuyin.com(请把#改成@)
主音唯一码
lgych-00386
文件大小
43.4G
百度网盘下载
提取码
kv99
文件解压密码
9nine<Dream Live In Budokan>日本武道馆演唱会2014【43.4G】1080P蓝光原盘 视频截图




















9nine<Dream Live In Budokan>日本武道馆演唱会2014【43.4G】1080P蓝光原盘 视频剧情截图
9nine<Dream Live In Budokan>日本武道馆演唱会2014【43.4G】1080P蓝光原盘 演唱会曲目介绍
9nine Dream Live In Budokan 日本武道馆演唱会2014【43.4G】1080P蓝光原盘

曲目

1. -OPENING-
2. With You / With Me
3. out of the blue
4. Evolution No.9
5. THE MAGI9AL FES.
6. #girls
7. -MC1-
8. Forget-U-not
9. LOVE VAMPIRE
10. (Luv=)0 or H8?
11. ATASHI≒WATASHI
12. 白い華
13. Sky
14. ヒカリノカゲ
15. Cross Over
16. -MC2-
17. 流星のくちづけ
18. -DANCE CORNER-
19. ALGORITHM+LOVE
20. モノクロ
21. NeXT to FUTURE
22. 9uestions
23. -MC3-
24. Re:
25. 少女トラベラー
26. 困惑コンフューズ
27. 9nine o’clock
28. Party9
29. -MC4-
30. colorful
31. -MC5-
32. つづくつづく...
33. SHINING☆STAR
34. -ENDING-
主音唯一码
lgych-00386
文件大小
43.4G
百度网盘下载
提取码
kv99
文件解压密码
9nine<Dream Live In Budokan>日本武道馆演唱会2014【43.4G】1080P蓝光原盘 演唱会视频参数信息
演唱会参数信息

DISC INFO:

Disc Title:     lgych-00386 9nine Dream Live In Budokan 日本武道馆演唱会2014【43.4G】1080P蓝光原盘
Disc Size:      46,656,765,232 bytes
Protection:     AACS
BD-Java:        No
BDInfo:         0.5.8

PLAYLIST REPORT:

Name:                   00001.MPLS
Length:                 2:39:10.541 (h:m:s.ms)
Size:                   0 bytes
Total Bitrate:          0.00 Mbps

VIDEO:

Codec                   Bitrate             Description     
-----                   -------             -----------     
MPEG-4 AVC Video        0 kbps              1080p / 23.976 fps / 16:9 / High Profile 4.1

AUDIO:

Codec                           Language        Bitrate         Description     
-----                           --------        -------         -----------     
LPCM Audio                      Japanese        2304 kbps       2.0 / 48 kHz / 2304 kbps / 24-bit

FILES:

Name            Time In         Length          Size            Total Bitrate   
----            -------         ------          ----            -------------   
00001.M2TS      0:00:00.000     1:30:11.406     0               0               
00002.M2TS      1:30:11.406     1:08:51.127     0               0               
00003.M2TS      2:39:02.533     0:00:08.007     0               0               
为您推荐 9nine,佐武宇绮,西胁彩华,吉井香奈惠,川岛海荷,村田宽奈 相关的演唱会视频
主音唯一码
lgych-00386
文件大小
43.4G
百度网盘下载
提取码
kv99
文件解压密码
最新天气预报