> 达明一派<达明卅一派对>香港红馆演唱会2017【41.3G】1080P蓝光原盘
歌 手 : 达明一派,黄耀明,刘以达,何韵诗
主音唯一码 : lgych-00389
视频大小 : 41.3G主音网微信 : tao18074625335
创建时间 : 2017-12-10主音网QQ客服 :2268809533
视频目录 : 蓝光演唱会
主音网邮箱 :bimuyu#zhuyin.com(请把#改成@)
主音唯一码
lgych-00389
文件大小
41.3G
百度网盘下载
提取码
yitp
文件解压密码
达明一派<达明卅一派对>香港红馆演唱会2017【41.3G】1080P蓝光原盘 视频截图












达明一派<达明卅一派对>香港红馆演唱会2017【41.3G】1080P蓝光原盘 视频剧情截图
达明一派<达明卅一派对>香港红馆演唱会2017【41.3G】1080P蓝光原盘 演唱会曲目介绍
达明一派 达明卅一派对 香港红馆演唱会2017【41.3G】1080P蓝光原盘

曲目

01. 等着你回来 (演唱: 白光) 
02. 长征 / 四季交易会 
03. 我有两个 
04. 你望我望 
05. 后窗 
06. 崩裂 
07. 1+4=14 
08. 填充 
09. 甜美生活 
10. 每日一禁果 
11. 青春残酷物语 
12. 迷恋 
13. 暗涌 
14. 爱在瘟疫蔓延时 
15. 禁色 
16. 今天我愿你平安,阿们/ 天问 
17. 撑起雨伞 / 马路天使 
18. 迷惘夜车 
19. 今夜星光灿烂 
20. 十个救火的少年(live in CARS mix) 
21. 今天应该很高兴 
22. 下落不明(featuring 何韵诗) 
23. 给大卫的情书 
24. 刹那天地 
25. 排名不分先后左右忠奸 (系人定系鬼) 
26. It's my party 
27. 溜冰滚族 
28. 天花乱坠 
29. 关于英雄 
30. Heroes 
31. 继续追寻 
32. 末世情 
33. 鸣谢 
34. 石头记 
35. 半生缘
主音唯一码
lgych-00389
文件大小
41.3G
百度网盘下载
提取码
yitp
文件解压密码
达明一派<达明卅一派对>香港红馆演唱会2017【41.3G】1080P蓝光原盘 演唱会视频参数信息
演唱会参数信息

DISC INFO:

Disc Title:     lgych-00389 达明一派 达明卅一派对 香港红馆演唱会2017【41.3G】1080P蓝光原盘
Disc Size:      44,390,268,020 bytes
Protection:     AACS
BD-Java:        No
BDInfo:         0.5.8

PLAYLIST REPORT:

Name:                   00001.MPLS
Length:                 2:38:38.842 (h:m:s.ms)
Size:                   0 bytes
Total Bitrate:          0.00 Mbps

VIDEO:

Codec                   Bitrate             Description     
-----                   -------             -----------     
MPEG-4 AVC Video        0 kbps              1080i / 29.970 fps / 16:9 / High Profile 4.1

AUDIO:

Codec                           Language        Bitrate         Description     
-----                           --------        -------         -----------     
DTS-HD Master Audio             Chinese         0 kbps          5.1 / 96 kHz / 24-bit (DTS Core: 6.1 / 48 kHz / 1509 kbps / 24-bit)
Dolby Digital Audio             Chinese         640 kbps        5.1 / 48 kHz / 640 kbps
LPCM Audio                      Chinese         4608 kbps       2.0 / 96 kHz / 4608 kbps / 24-bit

SUBTITLES:

Codec                           Language        Bitrate         Description     
-----                           --------        -------         -----------     
Presentation Graphics           Chinese         0.000 kbps                      

FILES:

Name            Time In         Length          Size            Total Bitrate   
----            -------         ------          ----            -------------   
00003.M2TS      0:00:00.000     2:35:44.334     0               0               
00004.M2TS      2:35:44.334     0:02:53.506     0               0               
00014.M2TS      2:38:37.841     0:00:01.000     0               0               
为您推荐 达明一派,黄耀明,刘以达,何韵诗 相关的演唱会视频
主音唯一码
lgych-00389
文件大小
41.3G
百度网盘下载
提取码
yitp
文件解压密码
最新天气预报