> 方大同<15专辑>2011世界巡回演唱会香港会展中心站【41.5G】1080P
歌 手 : 方大同
主音唯一码 : lgych-00393
视频大小 : 41.5G主音网微信 : zhuyinwang01
创建时间 : 2018-09-10主音网QQ客服 :2305540263
视频目录 : 中国香港演唱会
主音网邮箱 :bimuyu#zhuyin.com(请把#改成@)
主音唯一码
lgych-00393
文件大小
41.5G
百度网盘下载
提取码
3xwn
文件解压密码
方大同<15专辑>2011世界巡回演唱会香港会展中心站【41.5G】1080P 视频截图


















方大同<15专辑>2011世界巡回演唱会香港会展中心站【41.5G】1080P 视频剧情截图
方大同<15专辑>2011世界巡回演唱会香港会展中心站【41.5G】1080P 演唱会曲目介绍
方大同 15专辑 2011世界巡回演唱会香港会展中心站【41.5G】1080P蓝光原盘

曲目

01. 张永成
02. Come Together
03. 无菇朋友
04. 二人游
05. Over
06. Take me
07. Gotta Make a Change
08. 情胜策略
09. 自以为
10. 因为你
11. 昙花
12. 认识你
13. 十九八七
14. 三人游
15. 四人游 (feat. Fiona Sit)
16. 小小虫
17. 100种表情
18. 爱在
19. 黑洞里
20. Singalongsong
21. 忘了美丽
22. 南音
23. 手拖手
24. 够不够
25. 玩乐
26. Rosy
27. 爱爱爱
28. Love Song
29. 好不容易
30. Wonderful Tonight
主音唯一码
lgych-00393
文件大小
41.5G
百度网盘下载
提取码
3xwn
文件解压密码
方大同<15专辑>2011世界巡回演唱会香港会展中心站【41.5G】1080P 演唱会视频参数信息
演唱会参数信息

DISC INFO:

Disc Title:     lgych-00393 方大同 15专辑 2011世界巡回演唱会香港会展中心站【41.5G】1080P蓝光原盘
Disc Size:      44,567,622,645 bytes
Protection:     AACS
BD-Java:        No
BDInfo:         0.5.8

PLAYLIST REPORT:

Name:                   00001.MPLS
Length:                 2:25:04.028 (h:m:s.ms)
Size:                   0 bytes
Total Bitrate:          0.00 Mbps

VIDEO:

Codec                   Bitrate             Description     
-----                   -------             -----------     
MPEG-4 AVC Video        0 kbps              1080i / 29.970 fps / 16:9 / High Profile 4.1

AUDIO:

Codec                           Language        Bitrate         Description     
-----                           --------        -------         -----------     
LPCM Audio                      Chinese         6912 kbps       5.1 / 48 kHz / 6912 kbps / 24-bit
DTS-HD Master Audio             Chinese         0 kbps          5.1 / 48 kHz / 24-bit (DTS Core: 5.1 / 48 kHz / 1509 kbps / 24-bit)
Dolby Digital Audio             Chinese         640 kbps        5.1 / 48 kHz / 640 kbps

SUBTITLES:

Codec                           Language        Bitrate         Description     
-----                           --------        -------         -----------     
Presentation Graphics           Chinese         0.000 kbps                      
Presentation Graphics           Chinese         0.000 kbps                      

FILES:

Name            Time In         Length          Size            Total Bitrate   
----            -------         ------          ----            -------------   
00003.M2TS      0:00:00.000     1:28:16.824     0               0               
00004.M2TS      1:28:16.824     0:52:38.288     0               0               
00005.M2TS      2:20:55.113     0:04:08.915     0               0               
为您推荐 方大同 相关的演唱会视频
主音唯一码
lgych-00393
文件大小
41.5G
百度网盘下载
提取码
3xwn
文件解压密码
最新天气预报