> 灰色银币 Dir En Grey<Dum Spiro Spero At Nippon Budokan>武道馆演唱会2014【64.4G】1080P蓝光原盘
歌 手 : 灰色银币,DirEnGrey
主音唯一码 : lgych-00396
视频大小 : 64.4G主音网微信 : tao18074625335
创建时间 : 2017-12-11主音网QQ客服 :2268809533
视频目录 : 日本演唱会
主音网邮箱 :bimuyu#zhuyin.com(请把#改成@)
主音唯一码
lgych-00396
文件大小
64.4G
百度网盘下载
提取码
42ev
文件解压密码
灰色银币 Dir En Grey<Dum Spiro Spero At Nippon Budokan>武道馆演唱会2014【64.4G】1080P蓝光原盘 视频截图














灰色银币 Dir En Grey<Dum Spiro Spero At Nippon Budokan>武道馆演唱会2014【64.4G】1080P蓝光原盘 视频剧情截图
灰色银币 Dir En Grey<Dum Spiro Spero At Nippon Budokan>武道馆演唱会2014【64.4G】1080P蓝光原盘 演唱会曲目介绍
灰色银币 Dir En Grey Dum Spiro Spero At Nippon Budokan 武道馆演唱会2014【64.4G】1080P蓝光原盘

曲目

日本武道馆
2014.03.08

01. 狂骨の鳴り
02. THE BLOSSOMING BEELZEBUB
03.DIFFERENT SENSE
04. OBSCURE
05. LOTUS (Symphonic Ver.)
06. Unknown.Despair.Lost
07. AMON (Symphonic Ver.)
08. INWARD SCREAM
09. 蜜と唾
10. 滴る朦朧
11. dead tree
12. INWARD SCREAM
13. 鴉
14. VINUSHKA
15. 霧と繭
16. 暁
17. THE FINAL
18. VANITAS
19. SUSTAIN THE UNTRUTH
20. 蒼い月
21. THE ⅢD EMPIRE
22. C
23. 残

日本武道馆
2014.03.09

01. 狂骨の鳴り
02. MACABRE
03. 流転の塔
04. 激しさと、この胸の中で絡み付いた灼熱の闇
05. 「欲巣にDREAMBOX」あるいは成熟の理念と冷たい雨
06. 獣慾
07. DECAYED CROW
08. Bottom of the death valley
09. INWARD SCREAM
10. かすみ
11. 砂上の唄
12. 孤独に死す、故に孤独。
13. INWARD SCREAM
14. THE BLOSSOMING BEELZEBUB (Symphonic Ver.)
15. 業
16. Unraveling
17. DIABOLOS
18. 輪郭
19. umbrella
20. 羅刹国
21. SUSTAIN THE UNTRUTH
22. 朔-saku-
主音唯一码
lgych-00396
文件大小
64.4G
百度网盘下载
提取码
42ev
文件解压密码
灰色银币 Dir En Grey<Dum Spiro Spero At Nippon Budokan>武道馆演唱会2014【64.4G】1080P蓝光原盘 演唱会视频参数信息
演唱会参数信息

DISC INFO:

Disc Title:     lgych-00396 灰色银币 Dir En Grey Dum Spiro Spero At Nippon Budokan 武道馆演唱会2014【64.4G】1080P蓝光原盘
Disc Size:      44,994,493,814 bytes
Protection:     AACS
BD-Java:        No
BDInfo:         0.5.8

PLAYLIST REPORT:

Name:                   00000.MPLS
Length:                 4:15:08.793 (h:m:s.ms)
Size:                   0 bytes
Total Bitrate:          0.00 Mbps

VIDEO:

Codec                   Bitrate             Description     
-----                   -------             -----------     
MPEG-4 AVC Video        0 kbps              1080p / 23.976 fps / 16:9 / High Profile 4.1

AUDIO:

Codec                           Language        Bitrate         Description     
-----                           --------        -------         -----------     
LPCM Audio                      Japanese        2304 kbps       2.0 / 48 kHz / 2304 kbps / 24-bit

FILES:

Name            Time In         Length          Size            Total Bitrate   
----            -------         ------          ----            -------------   
00000.M2TS      0:00:00.000     1:00:20.617     0               0               
00001.M2TS      1:00:20.617     1:00:08.104     0               0               
00002.M2TS      2:00:28.721     1:13:12.388     0               0               
00003.M2TS      3:13:41.109     1:00:51.147     0               0               
00005.M2TS      4:14:32.256     0:00:27.027     0               0               
00003.M2TS      4:14:59.283     0:00:09.509     0               0               
为您推荐 灰色银币,DirEnGrey 相关的演唱会视频
主音唯一码
lgych-00396
文件大小
64.4G
百度网盘下载
提取码
42ev
文件解压密码
最新天气预报