> 灰色银币 Dir En Grey<Average Sorrow>蓝光MV集合2015【21.6G】1080P蓝光原盘
歌 手 : 灰色银币,DirEnGrey
主音唯一码 : lgych-00397
视频大小 : 21.6G主音网微信 : tao18074625335
创建时间 : 2017-12-11主音网QQ客服 :2268809533
视频目录 : 蓝光演唱会
主音网邮箱 :bimuyu#zhuyin.com(请把#改成@)
主音唯一码
lgych-00397
文件大小
21.6G
百度网盘下载
提取码
z64m
文件解压密码
灰色银币 Dir En Grey<Average Sorrow>蓝光MV集合2015【21.6G】1080P蓝光原盘 视频截图








灰色银币 Dir En Grey<Average Sorrow>蓝光MV集合2015【21.6G】1080P蓝光原盘 视频剧情截图
灰色银币 Dir En Grey<Average Sorrow>蓝光MV集合2015【21.6G】1080P蓝光原盘 演唱会曲目介绍
灰色银币 Dir En Grey Average Sorrow 蓝光MV集合2015【21.6G】1080P蓝光原盘

曲目

1. 激しさと、この胸の中で絡み付いた灼熱の闇
2. LOTUS
3. DIFFERENT SENSE
4. 輪郭
5. Unraveling (Restricted Ver.)
6. SUSTAIN THE UNTRUTH
7. 空谷の跫音
8. Revelation of mankind (Restricted Ver.)
9. 鱗
10. 激しさと、この胸の中で絡み付いた灼熱の闇 (Making of Music Clip)
11. LOTUS (Making of Music Clip)
12. DIFFERENT SENSE (Making of Music Clip)
13. Unraveling (Making of Music Clip)
14. Revelation of mankind (Making of Music Clip)
15. 鱗 (Making of Music Clip)
主音唯一码
lgych-00397
文件大小
21.6G
百度网盘下载
提取码
z64m
文件解压密码
灰色银币 Dir En Grey<Average Sorrow>蓝光MV集合2015【21.6G】1080P蓝光原盘 演唱会视频参数信息
演唱会参数信息

DISC INFO:

Disc Title:     lgych-00397 灰色银币 Dir En Grey Average Sorrow 蓝光MV集合2015【21.6G】1080P蓝光原盘
Disc Size:      23,289,177,527 bytes
Protection:     AACS
BD-Java:        No
BDInfo:         0.5.8

PLAYLIST REPORT:

Name:                   00002.MPLS
Length:                 1:42:12.659 (h:m:s.ms)
Size:                   0 bytes
Total Bitrate:          0.00 Mbps

VIDEO:

Codec                   Bitrate             Description     
-----                   -------             -----------     
MPEG-4 AVC Video        0 kbps              1080i / 29.970 fps / 16:9 / High Profile 4.1

AUDIO:

Codec                           Language        Bitrate         Description     
-----                           --------        -------         -----------     
LPCM Audio                      Japanese        2304 kbps       2.0 / 48 kHz / 2304 kbps / 24-bit

FILES:

Name            Time In         Length          Size            Total Bitrate   
----            -------         ------          ----            -------------   
00002.M2TS      0:00:00.000     0:04:08.248     0               0               
00004.M2TS      0:04:08.248     0:04:03.276     0               0               
00005.M2TS      0:08:11.524     0:00:04.004     0               0               
00006.M2TS      0:08:15.528     0:05:08.241     0               0               
00007.M2TS      0:13:23.769     0:00:03.003     0               0               
00008.M2TS      0:13:26.772     0:05:54.387     0               0               
00009.M2TS      0:19:21.159     0:00:03.003     0               0               
为您推荐 灰色银币,DirEnGrey 相关的演唱会视频
主音唯一码
lgych-00397
文件大小
21.6G
百度网盘下载
提取码
z64m
文件解压密码
最新天气预报