> 西野加奈<Kana Nishino Love Collection Tour pink mint>日本巡回演唱会横滨场2014【40.3G】1080P蓝光原盘
歌 手 : 西野加奈,KanaNishino
主音唯一码 : lgych-00418
视频大小 : 40.3G主音网微信 : tao18074625335
创建时间 : 2018-01-14主音网QQ客服 :2268809533
视频目录 : 日本演唱会
主音网邮箱 :bimuyu#zhuyin.com(请把#改成@)
主音唯一码
lgych-00418
文件大小
40.3G
百度网盘下载
提取码
awbk
文件解压密码
西野加奈<Kana Nishino Love Collection Tour pink mint>日本巡回演唱会横滨场2014【40.3G】1080P蓝光原盘 视频截图
















西野加奈<Kana Nishino Love Collection Tour pink mint>日本巡回演唱会横滨场2014【40.3G】1080P蓝光原盘 视频剧情截图
西野加奈<Kana Nishino Love Collection Tour pink mint>日本巡回演唱会横滨场2014【40.3G】1080P蓝光原盘 演唱会曲目介绍
西野加奈 Kana Nishino Love Collection Tour pink mint 日本巡回演唱会横滨场2014【40.3G】1080P蓝光原盘

演唱会曲目

1. 君に会いたくなるから
2. Believe
3. GO FOR IT !!
4. 会いたくて 会いたくて
5. Dear…
6. I (Short Ver.)
7. glowly days (Short Ver.)
8. Band Time
9. たとえ どんなに…
10. 君の声を feat.VERBAL(m-flo)
11. 君って
12. 私たち
13. Dancers & DJ Performance
14. LIGHTS, CAMERA, ACTION
15. FANTASY (Short Ver.)
16. Love you, Miss you (Short Ver.)
17. Every Boy Every Girl (Short Ver.)
18. Sweet Dreams (Short Ver.)
19. Summer Girl feat.MINMI
20. さよなら
21. 涙色
22. 遠くても feat.WISE
23. Sherie
1. Join us! (ENCORE)
2. We Don’t Stop (ENCORE)
3. Best Friend (ENCORE)
4. HAPPY HAPPY (W ENCORE)
主音唯一码
lgych-00418
文件大小
40.3G
百度网盘下载
提取码
awbk
文件解压密码
西野加奈<Kana Nishino Love Collection Tour pink mint>日本巡回演唱会横滨场2014【40.3G】1080P蓝光原盘 演唱会视频参数信息
演唱会参数信息

DISC INFO:

Disc Title:     lgych-00418 西野加奈 Kana Nishino Love Collection Tour pink mint 日本巡回演唱会横滨场2014【40.3G】1080P蓝光原盘
Disc Size:      43,374,682,784 bytes
Protection:     AACS
BD-Java:        No
BDInfo:         0.5.8

PLAYLIST REPORT:

Name:                   00001.MPLS
Length:                 2:40:56.646 (h:m:s.ms)
Size:                   0 bytes
Total Bitrate:          0.00 Mbps

VIDEO:

Codec                   Bitrate             Description     
-----                   -------             -----------     
MPEG-4 AVC Video        0 kbps              1080p / 23.976 fps / 16:9 / High Profile 4.1

AUDIO:

Codec                           Language        Bitrate         Description     
-----                           --------        -------         -----------     
LPCM Audio                      Japanese        4608 kbps       2.0 / 96 kHz / 4608 kbps / 24-bit
DTS-HD Master Audio             Japanese        0 kbps          5.1 / 96 kHz / 24-bit (DTS Core: 5.1 / 48 kHz / 1509 kbps / 24-bit)

FILES:

Name            Time In         Length          Size            Total Bitrate   
----            -------         ------          ----            -------------   
00000.M2TS      0:00:00.000     1:07:14.113     0               0               
00002.M2TS      1:07:14.113     1:33:34.525     0               0               
00004.M2TS      2:40:48.638     0:00:08.007     0               0               
为您推荐 西野加奈,KanaNishino 相关的演唱会视频
主音唯一码
lgych-00418
文件大小
40.3G
百度网盘下载
提取码
awbk
文件解压密码
最新天气预报