> 安室奈美惠<Namie Amuro Finally 25th Anniversary 1992-2017>25周年纪念精选蓝光MV合集【13.7G】1080P蓝光原盘
歌 手 : 安室奈美惠,Namie Amuro
主音唯一码 : lgych-00419
视频大小 : 13.7G主音网微信 : tao18074625335
创建时间 : 2018-01-14主音网QQ客服 :2268809533
视频目录 : 蓝光演唱会
主音网邮箱 :bimuyu#zhuyin.com(请把#改成@)
主音唯一码
lgych-00419
文件大小
13.7G
百度网盘下载
提取码
bght
文件解压密码
安室奈美惠<Namie Amuro Finally 25th Anniversary 1992-2017>25周年纪念精选蓝光MV合集【13.7G】1080P蓝光原盘 视频截图














安室奈美惠<Namie Amuro Finally 25th Anniversary 1992-2017>25周年纪念精选蓝光MV合集【13.7G】1080P蓝光原盘 视频剧情截图
安室奈美惠<Namie Amuro Finally 25th Anniversary 1992-2017>25周年纪念精选蓝光MV合集【13.7G】1080P蓝光原盘 演唱会曲目介绍
安室奈美惠 Namie Amuro Finally 25th Anniversary 1992-2017 25周年纪念精选蓝光MV合集【13.7G】1080P蓝光原盘

演唱会曲目

01. Red Carpet
02. Mint
03. Hero
04. Dear Diary
05. Fighter
06. Christmas Wish
07. Just You and I
08. In Two
09. How do you feel now?
10. Showtime
11. Do It For Love
12. Finally
主音唯一码
lgych-00419
文件大小
13.7G
百度网盘下载
提取码
bght
文件解压密码
安室奈美惠<Namie Amuro Finally 25th Anniversary 1992-2017>25周年纪念精选蓝光MV合集【13.7G】1080P蓝光原盘 演唱会视频参数信息
演唱会参数信息

DISC INFO:

Disc Title:     lgych-00419 安室奈美惠 Namie Amuro Finally 25th Anniversary 1992-2017 25周年纪念精选蓝光MV合集【13.7G】1080P蓝光原盘
Disc Size:      14,807,583,952 bytes
Protection:     AACS
BD-Java:        No
BDInfo:         0.5.8

PLAYLIST REPORT:

Name:                   00013.MPLS
Length:                 0:47:54.771 (h:m:s.ms)
Size:                   0 bytes
Total Bitrate:          0.00 Mbps

VIDEO:

Codec                   Bitrate             Description     
-----                   -------             -----------     
MPEG-4 AVC Video        0 kbps              1080i / 29.970 fps / 16:9 / High Profile 4.1

AUDIO:

Codec                           Language        Bitrate         Description     
-----                           --------        -------         -----------     
LPCM Audio                      Japanese        2304 kbps       2.0 / 48 kHz / 2304 kbps / 24-bit

FILES:

Name            Time In         Length          Size            Total Bitrate   
----            -------         ------          ----            -------------   
00001.M2TS      0:00:00.000     0:03:45.959     0               0               
00002.M2TS      0:03:45.959     0:03:58.605     0               0               
00003.M2TS      0:07:44.564     0:05:43.409     0               0               
为您推荐 安室奈美惠,Namie Amuro 相关的演唱会视频
主音唯一码
lgych-00419
文件大小
13.7G
百度网盘下载
提取码
bght
文件解压密码
最新天气预报