> 柴崎幸<Kou Shibasaki Live Tour 2011 circle cycle 2011.11.28 Tour Final>日本武道馆演唱会【43.8G】1080P蓝光原盘
歌 手 : 柴崎幸,山村幸惠
主音唯一码 : lgych-00425
视频大小 : 43.8G主音网微信 : tao18074625335
创建时间 : 2018-01-16主音网QQ客服 :2268809533
视频目录 : 蓝光演唱会
主音网邮箱 :bimuyu#zhuyin.com(请把#改成@)
主音唯一码
lgych-00425
文件大小
43.8G
百度网盘下载
提取码
lhm2
文件解压密码
柴崎幸<Kou Shibasaki Live Tour 2011 circle cycle 2011.11.28 Tour Final>日本武道馆演唱会【43.8G】1080P蓝光原盘 视频截图


















柴崎幸<Kou Shibasaki Live Tour 2011 circle cycle 2011.11.28 Tour Final>日本武道馆演唱会【43.8G】1080P蓝光原盘 视频剧情截图
柴崎幸<Kou Shibasaki Live Tour 2011 circle cycle 2011.11.28 Tour Final>日本武道馆演唱会【43.8G】1080P蓝光原盘 演唱会曲目介绍
柴崎幸 Kou Shibasaki Live Tour 2011 circle cycle 2011.11.28 Tour Final 日本武道馆演唱会【43.8G】1080P蓝光原盘

演唱会曲目

1. パラレルワールド 9 9リーディング
2. 爱の轮
3. Graspin' all of it
4. となり
5. 影
6. EUPHORIA
7. ゲノミクロニクル
8. 无形スピリット
9. galaxias!
10. CONNECTION
11. Boys  Girls
12. 无形スピリット -Mugen Loop Remix-
13. JOY [by Jazzin' park]
14. ルージュの伝言 (Unplugged)
15. 最爱 (Unplugged)
16. ミラーボール (Unplugged) [by 渡辺シュンスケ]
17. 月のしずく (Unplugged)
18. 泪月 -oboro-
19. アイネクライネ
20. wish
21. invitation
22. よくある话 ~丧服の女编~
23. ラバソー ~lover soul~
24. Focus
25. フィロソフィア
26. KISSして (ENCORE)
27. サヨナラブ (ENCORE)
主音唯一码
lgych-00425
文件大小
43.8G
百度网盘下载
提取码
lhm2
文件解压密码
柴崎幸<Kou Shibasaki Live Tour 2011 circle cycle 2011.11.28 Tour Final>日本武道馆演唱会【43.8G】1080P蓝光原盘 演唱会视频参数信息
演唱会参数信息

DISC INFO:

Disc Title:     lgych-00425 柴崎幸 Kou Shibasaki Live Tour 2011 circle cycle 2011.11.28 Tour Final 日本武道馆演唱会【43.8G】1080P蓝光原盘
Disc Size:      47,043,376,276 bytes
Protection:     AACS
BD-Java:        No
BDInfo:         0.5.8

PLAYLIST REPORT:

Name:                   00001.MPLS
Length:                 2:41:04.654 (h:m:s.ms)
Size:                   0 bytes
Total Bitrate:          0.00 Mbps

VIDEO:

Codec                   Bitrate             Description     
-----                   -------             -----------     
MPEG-4 AVC Video        0 kbps              1080i / 29.970 fps / 16:9 / High Profile 4.1

AUDIO:

Codec                           Language        Bitrate         Description     
-----                           --------        -------         -----------     
LPCM Audio                      Japanese        2304 kbps       2.0 / 48 kHz / 2304 kbps / 24-bit
LPCM Audio                      Japanese        2304 kbps       2.0 / 48 kHz / 2304 kbps / 24-bit

FILES:

Name            Time In         Length          Size            Total Bitrate   
----            -------         ------          ----            -------------   
00003.M2TS      0:00:00.000     1:59:08.141     0               0               
00004.M2TS      1:59:08.141     0:14:34.873     0               0               
00005.M2TS      2:13:43.015     0:27:21.640     0               0               
为您推荐 柴崎幸,山村幸惠 相关的演唱会视频
主音唯一码
lgych-00425
文件大小
43.8G
百度网盘下载
提取码
lhm2
文件解压密码
最新天气预报