> AKB48组合<AKB48 Group Request Hour Setlist Best 100 2017>乐
歌 手 : AKB48组合
主音唯一码 : lgych-00426
视频大小 : 111G主音网微信 : zhuyinwang01
创建时间 : 2018-09-10主音网QQ客服 :2305540263
视频目录 : 日本演唱会
主音网邮箱 :bimuyu#zhuyin.com(请把#改成@)
主音唯一码
lgych-00426
文件大小
111G
百度网盘下载
提取码
x163
文件解压密码
AKB48组合<AKB48 Group Request Hour Setlist Best 100 2017>乐 视频截图






















AKB48组合<AKB48 Group Request Hour Setlist Best 100 2017>乐 视频剧情截图
AKB48组合<AKB48 Group Request Hour Setlist Best 100 2017>乐 演唱会曲目介绍
AKB48组合 AKB48 Group Request Hour Setlist Best 100 2017 乐曲年度选拔演唱会【111G】1080P蓝光原盘.五碟

演唱会曲目

D.1 
January (Noon) - Tokyo Dome City Hall - 100 - 76
D.2 
January (Evening) - Tokyo Dome City Hall - 75 - 51
D.3 
January (Noon) - Tokyo Dome City Hall - 50 - 26
D.4 
January (Evening) - Tokyo Dome City Hall - 25 - 01
主音唯一码
lgych-00426
文件大小
111G
百度网盘下载
提取码
x163
文件解压密码
AKB48组合<AKB48 Group Request Hour Setlist Best 100 2017>乐 演唱会视频参数信息
演唱会参数信息

DISC INFO:

Disc Title:     lgych-00426 AKB48组合 AKB48 Group Request Hour Setlist Best 100 2017 乐曲年度选拔演唱会【111G】1080P蓝光原盘.五碟
Disc Size:      23,839,862,528 bytes
Protection:     AACS
BD-Java:        No
BDInfo:         0.5.8

PLAYLIST REPORT:

Name:                   00003.MPLS
Length:                 2:49:17.247 (h:m:s.ms)
Size:                   0 bytes
Total Bitrate:          0.00 Mbps

VIDEO:

Codec                   Bitrate             Description     
-----                   -------             -----------     
MPEG-4 AVC Video        0 kbps              1080p / 29.970 fps / 16:9 / High Profile 4.1

AUDIO:

Codec                           Language        Bitrate         Description     
-----                           --------        -------         -----------     
LPCM Audio                      Japanese        2304 kbps       2.0 / 48 kHz / 2304 kbps / 24-bit
LPCM Audio                      Japanese        1536 kbps       2.0 / 48 kHz / 1536 kbps / 16-bit

FILES:

Name            Time In         Length          Size            Total Bitrate   
----            -------         ------          ----            -------------   
00007.M2TS      0:00:00.000     0:00:38.071     0               0               
00001.M2TS      0:00:38.071     2:43:43.847     0               0               
00008.M2TS      2:44:21.918     0:04:55.328     0               0               
为您推荐 AKB48组合 相关的演唱会视频
主音唯一码
lgych-00426
文件大小
111G
百度网盘下载
提取码
x163
文件解压密码
最新天气预报