> AKB48组合<AKB48 Request Hour Setlist Best 1035 2015>乐曲年度选拔演唱会200-1【307G】1080P蓝光原盘.九碟
歌 手 : AKB48组合
主音唯一码 : lgych-00437
视频大小 : 307G主音网微信 : tao18074625335
创建时间 : 2018-02-06主音网QQ客服 :2268809533
视频目录 : 日本演唱会
主音网邮箱 :bimuyu#zhuyin.com(请把#改成@)
主音唯一码
lgych-00437
文件大小
307G
百度网盘下载
提取码
cyiq
文件解压密码
AKB48组合<AKB48 Request Hour Setlist Best 1035 2015>乐曲年度选拔演唱会200-1【307G】1080P蓝光原盘.九碟 视频截图














































AKB48组合<AKB48 Request Hour Setlist Best 1035 2015>乐曲年度选拔演唱会200-1【307G】1080P蓝光原盘.九碟 视频剧情截图
AKB48组合<AKB48 Request Hour Setlist Best 1035 2015>乐曲年度选拔演唱会200-1【307G】1080P蓝光原盘.九碟 演唱会曲目介绍
AKB48组合 AKB48 Request Hour Setlist Best 1035 2015 乐曲年度选拔演唱会200-1【307G】1080P蓝光原盘.九碟

演唱会曲目

200位 梦の河
199位 思い出せない花
198位 ピノキオ军
197位 みなさんもご一绪に
196位 フィンランド?ミラクル
194位 星空のキャラバン
194位 RIVER
193位 何度も狙え!
192位 RESET
191位 砂浜でピストル
189位 Pioneer
189位 教えてMommy
187位 Stargazer -2012 Here I am cuz of U- Yuka Masuda from DiVA
187位 Cloudy sky
186位 彼女になれますか?
185位 ロマンスかくれんぼ
184位 仆らのユリイカ
183位 大スキ+大キライ=大好き!
182位 虫のバラード
181位 ウインクは3回
180位 微睡み
179位 Glory days
178位 初めての星
176位 あなたと私
176位 草原の奇迹
175位 逆転王子様
174位 アイドルの夜明け
172位 ハートの独占権
172位 Only today
171位 纯情主义
169位 周末Not yet
169位 Tiny T-shirt
167位 结晶
167位 あっという间の少女
166位 ごめんね、SUMMER
164位 初恋の键
164位 放课后レース
163位 爱の意味を考えてみた
162位 ギンガムチェック
161位 2人だけの记忆
160位 制服のバンビ
159位 Party is over
158位 夏の催眠术
157位 やさしくさせて
156位 スキ!スキ!スキップ!
155位 お愿いヴァレンティヌ
154位 ジャングルジム
153位 希望について
152位 チーム坂
151位 恋を语る诗人になれなくて
150位 夕阳を见ているか?
149位 片想いFinally
148位 10クローネとパン
147位 After rain
146位 口移しのチョコレート
145位 キレイゴトでもいいじゃないか?
144位 高岭の林檎
143位 DISCOVERY
142位 思い出のほとんど
141位 バナナ革命
140位 天使のしっぽ
139位 夕立の前
138位 大声ダイヤモンド
137位 大人への道
136位 この世界が雪の中に埋もれる前に
135位 Already
134位 未来とは?
133位 君のことが好きやけん
132位 爱しきナターシャ
131位 みつばちガール
130位 右肩
129位 言い訳Maybe
128位 歌いたい
127位 桜の花びらたち
126位 セーラーゾンビ
125位 片思いの唐扬げ
124位 前しか向かねえ
123位 ピーク
122位 狼とプライド
121位 チームKⅡ推し
120位 チームB推し
119位 思い出以上
117位 overture (HKT48 ver.)
117位 UZA
116位 既読スルー
114位 イビサガール
114位 永远より続くように
111位 重力シンパシー
111位 いつもそばに
111位 今日までのメロディー
110位 波音のオルゴール
109位 见えない空はいつでも青い
108位 山へ行こう
107位 不器用太阳
106位 君にヤラレタ
105位 よっしゃーHKT!
104位 嘘つきなダチョウ
103位 なんでやねん、アイドル
102位 Bガーデン
101位 Reborn
99位 Birthday wedding
99位 TWO ROSES
98位 カナリアシンドローム
97位 初恋バタフライ
96位 チューインガムの味がなくなるまで
95位 性格が悪い女の子
94位 冬将军のリグレット
93位 へそが曲がる
92位 桜、みんなで食べた
91位 最初の爱の物语
90位 动机
89位 青空カフェ
88位 ヘビーローテーション
87位 ラブラドール?レトリバー
86位 青春のラップタイム
85位 チャンスの顺番
84位 ショートケーキ
82位 梦のdead body
82位 昨日よりもっと好き
81位 眼差しサヨナラ
80位 Ambulance
79位 バラの果実
78位 ファースト?ラビット
77位 今、Happy
76位 マツムラブ!
75位 おNEWの上履き
74位 チームKⅣ推し
73位 目が痛いくらい晴れた空
72位 岚の夜には
70位 HKT48
70位 覚えてください
69位 クロス
68位 君だけにChu ! Chu ! Chu !
67位 无人駅
66位 Show fight !
65位 メロンジュース
64位 ひと夏の反抗期
63位 くるくるぱー
62位 シンクロときめき
61位 初日
60位 走れ!ペンギン
59位 快速と动体视力
58位 纯爱のクレッシェンド
57位 ハート?エレキ
56位 アーモンドクロワッサン计画
55位 ぐぐたすの空
54位 风の螺旋
53位 ジッパー
52位 ハステとワステ
51位 Bird
50位 春色の翼
49位 抱きしめちゃいけない
48位 それでも好きだよ
47位 君の瞳はプラネタリウム
46位 抱きしめられたら
45位 LOVE修行
44位 恋よりもDream
43位 秘密のダイアリー
42位 アイドルの王者
41位 今 君を想う
40位 爱の存在
39位 ハート型ウイルス
38位 制服の羽根
37位 想像の诗人
36位 生意気リップス
35位 太宰治を読んだか?
34位 爱しさのアクセル
33位 上からマリコ
32位 らしくない
31位 ハートの脱出ゲーム
30位 初恋は実らない
29位 夜风の仕业
28位 May
27位 火山灰
26位 君のことが好きだから
25位 Choose me !
24位 わるきー
23位 盗まれた唇
22位 抱きしめたいけど
21位 泣きながら微笑んで
20位 この涙を君に捧ぐ
19位 夏の前
18位 てもでもの涙
17位 Escape
16位 私は私
15位 枯叶のステーション
14位 永远プレッシャー
13位 私はブルーベリーパイ
12位 控えめI love you !
11位 47の素敌な街へ
10位 清纯フィロソフィー
9位 ここで一発
8位 アイスのくちづけ
7位 奇迹は间に合わない
6位 心のプラカード
5位 希望的リフレイン
4位 恋するフォーチュンクッキー
3位 Jane Doe
2位 友达
1位 铃悬の木の道で「君の微笑みを梦に见る」と言ってしまったら仆たちの関系はどう変わってしまうのか、仆なりに何日か考えた上でのやや気耻ずかしい结论のようなもの
主音唯一码
lgych-00437
文件大小
307G
百度网盘下载
提取码
cyiq
文件解压密码
AKB48组合<AKB48 Request Hour Setlist Best 1035 2015>乐曲年度选拔演唱会200-1【307G】1080P蓝光原盘.九碟 演唱会视频参数信息
演唱会参数信息

DISC INFO:

Disc Title:     lgych-00437 AKB48组合 AKB48 Request Hour Setlist Best 1035 2015 乐曲年度选拔演唱会200-1【307G】1080P蓝光原盘.九碟
Disc Size:      39,993,704,404 bytes
Protection:     AACS
BD-Java:        No
BDInfo:         0.5.8

PLAYLIST REPORT:

Name:                   00003.MPLS
Length:                 2:42:34.611 (h:m:s.ms)
Size:                   0 bytes
Total Bitrate:          0.00 Mbps

VIDEO:

Codec                   Bitrate             Description     
-----                   -------             -----------     
MPEG-4 AVC Video        0 kbps              1080i / 29.970 fps / 16:9 / High Profile 4.1

AUDIO:

Codec                           Language        Bitrate         Description     
-----                           --------        -------         -----------     
LPCM Audio                      Japanese        2304 kbps       2.0 / 48 kHz / 2304 kbps / 24-bit
LPCM Audio                      Japanese        1536 kbps       2.0 / 48 kHz / 1536 kbps / 16-bit

FILES:

Name            Time In         Length          Size            Total Bitrate   
----            -------         ------          ----            -------------   
00005.M2TS      0:00:00.000     0:00:34.033     0               0               
00002.M2TS      0:00:34.033     0:58:52.862     0               0               
00008.M2TS      0:59:26.896     0:04:53.293     0               0               
00007.M2TS      1:04:20.189     1:36:03.758     0               0               
00010.M2TS      2:40:23.947     0:02:10.663     0               0               
为您推荐 AKB48组合 相关的演唱会视频
主音唯一码
lgych-00437
文件大小
307G
百度网盘下载
提取码
cyiq
文件解压密码
最新天气预报