> AKB48组合<Super Festival 超级节日>横滨演唱会2013【158G】1080P蓝光原盘.四碟
歌 手 : AKB48组合
主音唯一码 : lgych-00476
视频大小 : 158G主音网微信 : tao18074625335
创建时间 : 2018-05-13主音网QQ客服 :2268809533
视频目录 : 蓝光演唱会
主音网邮箱 :bimuyu#zhuyin.com(请把#改成@)
主音唯一码
lgych-00476
文件大小
158G
百度网盘下载
提取码
文件解压密码
AKB48组合<Super Festival 超级节日>横滨演唱会2013【158G】1080P蓝光原盘.四碟 视频截图




























AKB48组合<Super Festival 超级节日>横滨演唱会2013【158G】1080P蓝光原盘.四碟 视频剧情截图
AKB48组合<Super Festival 超级节日>横滨演唱会2013【158G】1080P蓝光原盘.四碟 演唱会曲目介绍
lgych-00476 AKB48组合 Super Festival 超级节日 横滨演唱会2013【158G】1080P蓝光原盘.四碟
AKB48スーパーフェスティバル~日産スタジアム、小(ち)っちぇ!小(ち)っちゃくないし!!

演唱会曲目

D.1

01. overture
02. AKBフェスティバル
03. ヘビーローテーション
04. フライングゲット
05. ギンガムチェック
06. 会いたかった
07. スキ! スキ! スキップ!
08. お願いヴァレンティヌ
09. 初恋バタフライ
10. オーマイガー!
11. ナギイチ
12. 北川謙二
13. 1! 2! 3! 4! ヨロシク!
14. バンザイVenus
15. パレオはエメラルド
16. Everyday、カチューシャ
17. 真夏のSounds good !
18. ポニーテールとシュシュ
19. ヘビーローテーション
20. 転がる石になれ
21. チームB推し
22. Pioneer
23. 天国野郎
24. Faint
25. ハート型ウイルス
26. 純愛のクレッシェンド
27. 真夏のクリスマスローズ
28. 愛しきナターシャ
29. てもでもの涙
30. パジャマドライブ
31. 泣きながら微笑んで
32. ハステとワステ
33. 僕らのユリイカ
34. 美しい稲妻
35. 君のことが好きやけん
36. 1%
37. バラの果実
38. ファースト?ラビット
39. 少女たちよ
40. ひこうき雲
41. さよならクロール
42. スカート、ひらり

D.2
AKB48 32ndシングル選抜総選挙~夢は一人じゃ見られない~ 開票イベント

D.3
AKB48スーパーフェスティバル メイキング
アピールコメント(72名)

D.4
アピールコメント(174名)
主音唯一码
lgych-00476
文件大小
158G
百度网盘下载
提取码
文件解压密码
AKB48组合<Super Festival 超级节日>横滨演唱会2013【158G】1080P蓝光原盘.四碟 演唱会视频参数信息
演唱会参数信息

DISC INFO:

Disc Title:     lgych-00476 AKB48组合 Super Festival 超级节日 横滨演唱会2013【158G】1080P蓝光原盘.四碟
Disc Size:      46,580,660,960 bytes
Protection:     AACS
BD-Java:        No
BDInfo:         0.5.8

PLAYLIST REPORT:

Name:                   00000.MPLS
Length:                 3:25:48.035 (h:m:s.ms)
Size:                   0 bytes
Total Bitrate:          0.00 Mbps

VIDEO:

Codec                   Bitrate             Description     
-----                   -------             -----------     
MPEG-4 AVC Video        0 kbps              1080i / 29.970 fps / 16:9 / High Profile 4.1

AUDIO:

Codec                           Language        Bitrate         Description     
-----                           --------        -------         -----------     
LPCM Audio                      Japanese        1536 kbps       2.0 / 48 kHz / 1536 kbps / 16-bit

FILES:

Name            Time In         Length          Size            Total Bitrate   
----            -------         ------          ----            -------------   
00000.M2TS      0:00:00.000     0:12:33.719     0               0               
00001.M2TS      0:12:33.719     0:12:45.264     0               0               
00002.M2TS      0:25:18.984     0:15:30.529     0               0               
00003.M2TS      0:40:49.513     0:29:43.748     0               0               
00004.M2TS      1:10:33.262     0:14:52.992     0               0               
00005.M2TS      1:25:26.254     0:16:28.354     0               0               
为您推荐 AKB48组合 相关的演唱会视频
主音唯一码
lgych-00476
文件大小
158G
百度网盘下载
提取码
文件解压密码
最新天气预报