> AKB48组合<回忆全部在这里抛弃吧>SKE48+HKT48+NMB48春季国立竞技场演唱会2014【149G】1080P蓝光原盘.四碟
歌 手 : AKB48组合,SKE48,HKT48,NMB48
主音唯一码 : lgych-00479
视频大小 : 149G主音网微信 : tao18074625335
创建时间 : 2018-05-14主音网QQ客服 :2268809533
视频目录 : 蓝光演唱会
主音网邮箱 :bimuyu#zhuyin.com(请把#改成@)
主音唯一码
lgych-00479
文件大小
149G
百度网盘下载
提取码
文件解压密码
AKB48组合<回忆全部在这里抛弃吧>SKE48+HKT48+NMB48春季国立竞技场演唱会2014【149G】1080P蓝光原盘.四碟 视频截图
























AKB48组合<回忆全部在这里抛弃吧>SKE48+HKT48+NMB48春季国立竞技场演唱会2014【149G】1080P蓝光原盘.四碟 视频剧情截图
AKB48组合<回忆全部在这里抛弃吧>SKE48+HKT48+NMB48春季国立竞技场演唱会2014【149G】1080P蓝光原盘.四碟 演唱会曲目介绍
lgych-00479 AKB48组合 回忆全部在这里抛弃吧 SKE48+HKT48+NMB48春季国立竞技场演唱会2014【149G】1080P蓝光原盘.四碟
AKB48グループ 春コン in さいたまスーパーアリーナ ~思い出は全部ここに捨てていけ!~ スペシャル

演唱会曲目

D.1

01.overture (SKE48 ver.)
02.強き者よ
03.青空片想い
04.ごめんね、SUMMER
05.1!2!3!4! ヨロシク!
06.バンザイVenus
07.パレオはエメラルド
08.オキドキ
09.片想いFinally
10.アイシテラブル!
11.キスだって左利き
12.チョコの奴隷
13.美しい稲妻
14.賛成カワイイ!
15.未来とは?
16.猫の尻尾がピンと立ってるように…
feat. Bose(スチャダラパー)
17.楽園の階段
18.RESET
19.S子と嘘発見器
20.隕石の確率
21.チームKⅡ推し
22.待ち合わせたい
23.ワッショイE!
24.夕立の前
25.狼とプライド
26.クロス
27.少女は真夏に何をする?
28.となりのバナナ
29.ウィンブルドンへ連れて行って
30.ヒグラシノコイ
31.ここで一発
32.Darkness
33.ピノキオ軍
34.チャイムはLOVE SONG
35.制服の芽
36.恋を語る詩人になれなくて
37.バズーカ砲発射!
38.そばにいさせて
EN01.手をつなぎながら
EN02.遠くにいても
EN03.仲間の歌

D.2

01.overture (HKT48 ver.)
02.HKT48
03.言い訳Maybe
04.Only today
05.10年桜
06.Dear my teacher
07.呼び捨てファンタジー
08.恋するフォーチュンクッキー
09.明日は明日の君が生まれる
10.そばかすのキス
11.BINGO!
12.飛べないアゲハチョウ
13.How come ?
14.Body&Soul
15.あ~よかった
16.CAT'S EYE
17.卒業
18.春一番
19.あゝ無情
20.セーラー服を脱がさないで
21.生意気リップス
22.君だけにChu ! Chu ! Chu !
23.必殺テレポート
24.GIVE ME FIVE!
25.お願いヴァレンティヌ
26.既読スルー
27.昔の彼氏のお兄ちゃんと
つき合うということ
28.スペシャルメドレー
RIVER
GAGAGA
美しい稲妻
カモネギックス
ロマンス、イラネ
アイサレルトイウコト
純情U-19
片想いFinally
RIVER
29.君はどうして?
30.初恋バタフライ
31.ウインクは3回
32.君のことが好きやけん
33.スキ!スキ!スキップ!
34. 今 君を想う
EN01. ロックだよ、人生は…
EN02. 大声ダイヤモンド
EN03. 桜、みんなで食べた
EN04. メロンジュース

D.3

01.overture (NMB48 ver.)
02.カモネギックス
03.HA !
04.てっぺんとったんで!
05.NMB48
06.三日月の背中
07.ここにだって天使はいる
08.インゴール
09.わるきー
10.ジッパー
11.星空のキャラバン
12.恋愛被害届け
13.僕がもう少し大胆なら
14.太宰治を読んだか?
15.なんでやねん、アイドル
16.絶滅黒髪少女
17.山へ行こう
18.水切り
19.プロムの恋人
20.純情U-19
21.僕らのユリイカ
22.初恋の行方とプレイボール
23.サングラスと打ち明け話
24.アーモンドクロワッサン計画
25.With my soul
26.情熱ハイウェイ
27.不毛の土地を満開に
28.思い出のほとんど
29.君と出会って僕は変わった
30.ヴァージニティー
31.オーマイガー!
32.ナギイチ
33.北川謙二
EN01.高嶺の林檎
EN02.妄想ガールフレンド
EN03.届かなそうで届くもの
EN04.青春のラップタイム
主音唯一码
lgych-00479
文件大小
149G
百度网盘下载
提取码
文件解压密码
AKB48组合<回忆全部在这里抛弃吧>SKE48+HKT48+NMB48春季国立竞技场演唱会2014【149G】1080P蓝光原盘.四碟 演唱会视频参数信息
演唱会参数信息

DISC INFO:

Disc Title:     lgych-00479 AKB48组合 回忆全部在这里抛弃吧 SKE48+HKT48+NMB48春季国立竞技场演唱会2014【149G】1080P蓝光原盘.四碟
Disc Size:      43,405,272,144 bytes
Protection:     AACS
BD-Java:        No
BDInfo:         0.5.8

PLAYLIST REPORT:

Name:                   00000.MPLS
Length:                 2:57:11.654 (h:m:s.ms)
Size:                   0 bytes
Total Bitrate:          0.00 Mbps

VIDEO:

Codec                   Bitrate             Description     
-----                   -------             -----------     
MPEG-4 AVC Video        0 kbps              1080i / 29.970 fps / 16:9 / High Profile 4.1

AUDIO:

Codec                           Language        Bitrate         Description     
-----                           --------        -------         -----------     
LPCM Audio                      Japanese        2304 kbps       2.0 / 48 kHz / 2304 kbps / 24-bit

FILES:

Name            Time In         Length          Size            Total Bitrate   
----            -------         ------          ----            -------------   
00004.M2TS      0:00:00.000     0:00:39.072     0               0               
00005.M2TS      0:00:39.072     1:24:08.043     0               0               
00006.M2TS      1:24:47.115     1:32:24.539     0               0               
为您推荐 AKB48组合,SKE48,HKT48,NMB48 相关的演唱会视频
主音唯一码
lgych-00479
文件大小
149G
百度网盘下载
提取码
文件解压密码
最新天气预报