> AKB48组合<Tokyo Dome Concert Surunayo Zettai Sotsugyo Happyo
歌 手 : AKB48组合
主音唯一码 : lgych-00487
视频大小 : 198G主音网微信 : zhuyinwang01
创建时间 : 2018-09-10主音网QQ客服 :2305540263
视频目录 : 日本演唱会
主音网邮箱 :bimuyu#zhuyin.com(请把#改成@)
主音唯一码
lgych-00487
文件大小
198G
百度网盘下载
提取码
ibzr
文件解压密码
AKB48组合<Tokyo Dome Concert Surunayo Zettai Sotsugyo Happyo 视频截图




























AKB48组合<Tokyo Dome Concert Surunayo Zettai Sotsugyo Happyo 视频剧情截图
AKB48组合<Tokyo Dome Concert Surunayo Zettai Sotsugyo Happyo 演唱会曲目介绍
lgych-00487 AKB48组合 Tokyo Dome Concert Surunayo Zettai Sotsugyo Happyo Surunayo 日本演唱会2014【198G】1080P蓝光原盘.五碟

演唱会曲目

D.1

1.overture
2.言い訳Maybe
3.大声ダイヤモンド
4.GIVE ME FIVE!
5.Dreamin’ girls
6.Dear my teacher
7.ボーイハントの方法 教えます
8.奇跡は間に合わない
9.50%
10.ガラスの I LOVE YOU
11.ハートの脱出ゲーム
12.偉い人になりたくない
13.Ruby
14.チームB推し
15.正義の味方じゃないヒーロー
16.君は気まぐれ
17.ずっと ずっと
18.ハンパなイケメン
19.チューしようぜ!
20.Seventeen
21.Choose me !
22.制服レジスタンス
23.青空のそばにいて
24.彼女になれますか?
25.スクラップ&ビルド
26.桜の木になろう
27.10年桜
28.47の素敵な街へ
29.心のプラカード|ポニーテールとシュシュ|恋するフォーチュンクッキー|GIVE ME FIVE! (スウィング?ジャズメドレー)
30.ラブラドール?レトリバー
31.AKBフェスティバル
32.上からマリコ
33.Party is over
34.Beginner
35.重力シンパシー
36.ポニーテールとシュシュ
37.ファースト?ラビット
38.Everyday、カチューシャ
39.君のことが好きだから
40.アリガトウ
41.愛の存在 (EN)
42.ヘビーローテーション (EN)
43.恋するフォーチュンクッキー (EN)
44.ひこうき雲 (EN)
45.心のプラカード (EN)

D.2

1.overture
2.ラッパ練習中
3.会いたかった
4.ファースト?ラビット
5.フライングゲット
6.セーラーゾンビ
7.ごめんね、SUMMER
8.鏡の中のジャンヌ?ダルク
9.ジッパー
10.教えてMommy
11.イビサガール
12.てっぺんとったんで!
13.不器用太陽
14.片想いFinally
15.桜、みんなで食べた
16.メロンジュース
17.君と虹と太陽と
18.Beginner
19.Escape
20.カモネギックス
21.毒蜘蛛
22.桜の木になろう
23.47の素敵な街へ
24.心のプラカード|ポニーテールとシュシュ|恋するフォーチュンクッキー|GIVE ME FIVE! (スウィング?ジャズメドレー)
25.ラブラドール?レトリバー
26.恋するフォーチュンクッキー
27.君のことが好きだから
28.昨日よりもっと好き
29.UZA
30.前しか向かねえ
31.大声ダイヤモンド
32.ウインクは3回
33.オキドキ
34.青春のラップタイム
35.言い訳Maybe
36.Everyday、カチューシャ
37.ヘビーローテーション
38.桜の花びらたち
39.誰かが投げたボール (EN)
40.チューインガムの味がなくなるまで (EN)
41.心のプラカード (EN)
42.AKBフェスティバル (EN)
43.ひこうき雲 (EN)

D.3

1.overture
2.少女たちよ
3.会いたかった
4.ファースト?ラビット
5.フライングゲット
6.ガールズルール
7.ハート?エレキ
8.Bird
9.遠距離ポスター
10.アイドルなんて呼ばないで
11.イビサガール
12.北川謙二
13.不器用太陽
14.アイシテラブル!
15.桜、みんなで食べた
16.メロンジュース
17.君と虹と太陽と
18.Beginner
19.Escape
20.カモネギックス
21.毒蜘蛛
22.桜の木になろう
23.47の素敵な街へ
24.心のプラカード|ポニーテールとシュシュ|恋するフォーチュンクッキー|GIVE ME FIVE! (スウィング?ジャズメドレー)
25.ラブラドール?レトリバー
26.恋するフォーチュンクッキー
27.君のことが好きだから
28.昨日よりもっと好き
29.UZA
30.前しか向かねえ
31.大声ダイヤモンド
32.ウインクは3回
33.オキドキ
34.青春のラップタイム
35.言い訳Maybe
36.Everyday、カチューシャ
37.ヘビーローテーション
38.タンポポの決心
39.ひと夏の反抗期 (EN)
40.性格が悪い女の子 (EN)
41.心のプラカード (EN)
42.AKBフェスティバル (EN)
43.ひこうき雲 (EN)

D.4

Making of AKB48 Group Tokyo Dome Concert Part 1

D.5

私の卒業したいこと
主音唯一码
lgych-00487
文件大小
198G
百度网盘下载
提取码
ibzr
文件解压密码
AKB48组合<Tokyo Dome Concert Surunayo Zettai Sotsugyo Happyo 演唱会视频参数信息
演唱会参数信息

DISC INFO:

Disc Title:     lgych-00487 AKB48组合 Tokyo Dome Concert Surunayo Zettai Sotsugyo Happyo Surunayo 日本演唱会2014【198G】1080P蓝光原盘.五碟
Disc Size:      46,165,837,972 bytes
Protection:     AACS
BD-Java:        No
BDInfo:         0.5.8

PLAYLIST REPORT:

Name:                   00002.MPLS
Length:                 3:10:12.501 (h:m:s.ms)
Size:                   0 bytes
Total Bitrate:          0.00 Mbps

VIDEO:

Codec                   Bitrate             Description     
-----                   -------             -----------     
MPEG-4 AVC Video        0 kbps              1080i / 29.970 fps / 16:9 / High Profile 4.1

AUDIO:

Codec                           Language        Bitrate         Description     
-----                           --------        -------         -----------     
LPCM Audio                      Japanese        2304 kbps       2.0 / 48 kHz / 2304 kbps / 24-bit
DTS-HD Master Audio             Japanese        0 kbps          5.1 / 48 kHz / 24-bit (DTS Core: 5.1 / 48 kHz / 1509 kbps / 24-bit)

FILES:

Name            Time In         Length          Size            Total Bitrate   
----            -------         ------          ----            -------------   
00002.M2TS      0:00:00.000     0:00:49.082     0               0               
00003.M2TS      0:00:49.082     1:36:06.794     0               0               
00005.M2TS      1:36:55.876     1:33:16.624     0               0               
为您推荐 AKB48组合 相关的演唱会视频
主音唯一码
lgych-00487
文件大小
198G
百度网盘下载
提取码
ibzr
文件解压密码
最新天气预报