请选择 进入手机版 | 继续访问电脑版

主音价值分享平台

 找回密码
 立即注册

QQ登录

只需一步,快速开始

1080P高清MV下载4K视频下载高清演唱会1080P高清演示下载
高清MV下载华语原版高清MV下载原版高清MV下载主音高清MV下载

滚石群星<快乐天堂>30周年台北演唱会2010【64G】1080P蓝光原盘

[复制链接]
秋风扫落叶 发表于 2016-11-30 16:33:51 | 显示全部楼层 |阅读模式
滚石群星<快乐天堂>30周年台北演唱会2010【64G】1080P蓝光原盘

1080P演唱会截图
1.jpg

2.jpg

3.jpg

4.jpg

5.jpg

6.JPG

7.JPG

8.JPG

9.JPG

10.JPG

1080P演唱会剧情截图
00000.jpeg

演唱会曲目介绍

1. 《伍佰.五月天.张震岳_凡人歌》
2. 《伍佰_梦醒时分》
3. 《五月天_恋曲1980》
4. 《张震岳_爱情酿的酒》
5. 《伍佰.五月天.张震岳_鹿港小镇》
6. 《顺子_回家》
7. 《杜德伟_情人》
8. 《杜德伟.张震岳_钟爱一生+爱我别》
9. 《杨乃文_星星堆满天》
10. 《张震岳.热狗.顺子_我爱台妹》
11. 《马念先_跆拳道》
12. 《张震岳_爱的初体验》
13. 《张震岳.热狗_嗨嗨人生》
14. 《杜德伟_拯救地球+脱掉》
15. 《邰肇玫_如果》
16. 《王海玲.马宜中.杨芳仪_忘了我是》
17. 《李建复_归去来兮+龙的传人》
18. 《吴楚楚.唐晓诗.杨芳仪.王海玲_一》
19. 《黄品源.任贤齐_那么爱你为什么+》
20. 《黄品源.任贤齐_你怎么舍得我难过》
21. 《黄品源.任贤齐_伤心太平洋》
22. 《任贤齐.小虫_心太软》
23. 《小虫_亲密爱人》
24. 《卓文萱.黄鸿升_一句话+不屑+爱的》
25. 《刚泽斌_你在他乡》
26. 《曹格_寂寞先生》
27. 《曹格_背叛》
28. 《任贤齐.黄品源.阿牛_浪花一朵朵+》
29. 《周华健.辛晓琪.梁静茹_当爱已成》
30. 《辛晓琪_承认+最爱》
31. 《梁静茹_海上花+滚滚红尘》
32. 《赵咏华_聪明糊涂心+最浪漫的事》
33. 《李丽芬_得意的笑》
34. 《李度_尘缘+鬼迷心窍》
35. 《郁可唯.林凡.潘嘉丽_新不了情》
36. 《赵咏华_玫瑰香+欢颜》
37. 《李丽芬_爱江山更爱美人》
38. 《许景淳_玫瑰人生+睡吧我的爱》
39. 《周华健_黎明不要来+追》
40. 《周华健.辛晓琪.梁静茹.郁可唯_守》
41. 《黄韵玲.娃娃.曹兰_蓝色啤酒海+河》
42. 《娃娃_飘洋过海来看你+大雨》
43. 《黄韵玲_改变+你是唯一》
44. 《李明依.庹宗华_算不算是一对恋人》
45. 《黄嘉千.赵之璧.锦绣二重唱_爱已》
46. 《五月天_憨人》
47. 《五月天_温柔》
48. 《五月天_人生海海》
49. 《陈升_拥挤的乐园》
50. 《陈升.曹启泰_秀我还是要上》
51. 《郁可唯_宁夏》
52. 《郁可唯.陈升_北京一夜》
53. 《陈升_把悲伤留给自己》
54. 《陈升_SUMMER》
55. 《潘越云.陈升_春娇和志明》
56. 《潘越云_桂花巷+纯情青春梦+情字》
57. 《李恕权_回+每次都想呼喊你的名字》
58. 《潘越云.王识贤.陈升_茶室春秋+舞》
59. 《潘越云_天天天蓝+浮生千山路+我》
60. 《陈升.潘越云.曹启泰_鼓声若响》
61. 《伍佰_爱情的尽头》
62. 《伍佰_树枝孤鸟》
63. 《伍佰_挪威的森林》
64. 《苏慧伦.伍佰_Lemon Tree+被动》
65. 《黄妃.苏慧伦_追追追》
66. 《黄妃.伍佰_爱情限时批》
67. 《吴佩慈.伍佰_闪着泪光的决定》
68. 《莫文蔚.伍佰_坚强的理由》
69. 《莫文蔚.伍佰_没时间》
70. 《刘若英.伍佰_很爱很爱你》
71. 《伍佰.刘若英_浪人情歌》
72. 《伍佰.陈升_爱你一万年》
73. 《群星_快乐天堂》

演唱会参数信息

DISC INFO:

Disc Title:      滚石群星<快乐天堂>30周年台北演唱会2010【64G】1080P蓝光原盘
Disc Size:      44,692,000,928 bytes
Protection:     AACS
BD-Java:        No
BDInfo:         0.5.8

PLAYLIST REPORT:

Name:                   00000.MPLS
Length:                 3:31:09.957 (h:m:s.ms)
Size:                   44,020,285,440 bytes
Total Bitrate:          27.80 Mbps

VIDEO:

Codec                   Bitrate             Description     
-----                   -------             -----------     
MPEG-4 AVC Video        20979 kbps          1080i / 29.970 fps / 16:9 / High Profile 4.1

AUDIO:

Codec                           Language        Bitrate         Description     
-----                           --------        -------         -----------     
LPCM Audio                      Chinese         1536 kbps       2.0 / 48 kHz / 1536 kbps / 16-bit
Dolby Digital Audio             Chinese         640 kbps        5.1 / 48 kHz / 640 kbps
DTS-HD Master Audio             Chinese         2817 kbps       5.1 / 48 kHz / 2817 kbps / 16-bit (DTS Core: 5.1 / 48 kHz / 1509 kbps / 16-bit)

SUBTITLES:

Codec                           Language        Bitrate         Description     
-----                           --------        -------         -----------     
Presentation Graphics           Chinese         22.449 kbps                     
Presentation Graphics           Chinese         22.039 kbps                     

FILES:

Name            Time In         Length          Size            Total Bitrate   
----            -------         ------          ----            -------------   
00000.M2TS      0:00:00.000     3:00:22.344     37,556,133,888  27,762         
00001.M2TS      3:00:22.344     0:30:47.011     6,462,947,328   27,993         
00007.M2TS      3:31:09.356     0:00:00.600     1,204,224       16,040         

回复

使用道具 举报

 楼主| 秋风扫落叶 发表于 2016-11-30 16:34:27 | 显示全部楼层
本帖为密码帖 ,请输入密码 
回复 支持 3 反对 0

使用道具 举报

皮皮鲁 发表于 2016-12-11 02:55:06 | 显示全部楼层
我要下载我要下载
回复 支持 反对

使用道具 举报

埃文 发表于 2016-12-15 20:23:47 | 显示全部楼层
很好呀,谢谢分享啦,我要下载来听一听!
回复 支持 反对

使用道具 举报

在这里 发表于 2017-1-11 14:34:38 | 显示全部楼层
密码贴的密码在哪里找?
回复 支持 反对

使用道具 举报

用心感悟人生 发表于 2017-1-12 06:37:35 | 显示全部楼层
强力支持,多谢楼主辛勤劳动分享精彩演唱会!
回复 支持 反对

使用道具 举报

伍云 发表于 2017-1-12 10:41:18 | 显示全部楼层
ddddddddddddddddddddddddddddddd
回复 支持 反对

使用道具 举报

乌鸦 发表于 2017-2-4 15:41:01 | 显示全部楼层
谢谢分享,看看能不能下
回复 支持 反对

使用道具 举报

简简单单 发表于 3 天前 | 显示全部楼层
很好,谢谢楼主分享!
回复 支持 反对

使用道具 举报

简简单单 发表于 3 天前 | 显示全部楼层
很好,谢谢楼主分享!
回复 支持 反对

使用道具 举报

您需要登录后才可以回帖 登录 | 立即注册

本版积分规则

搜索
热搜: 1080

QQ|手机版| 主音网,众分享 ( 沪ICP备16014104号 )     

GMT+8, 2017-2-19 19:50

Powered by Discuz! X3.2

© 2001-2013 Comsenz Inc.

快速回复 返回顶部 返回列表