请选择 进入手机版 | 继续访问电脑版

主音价值分享平台

 找回密码
 立即注册

QQ登录

只需一步,快速开始

1080P高清MV下载4K视频下载高清演唱会1080P高清演示下载
高清MV下载华语原版高清MV下载原版高清MV下载主音高清MV下载

张智霖<Chilam In Concert 我系外星人>香港演唱会2011【41.62G】1080P蓝光原盘

[复制链接]
秋风扫落叶 发表于 2016-11-10 12:28:11 | 显示全部楼层 |阅读模式
张智霖<Chilam In Concert 我系外星人>香港红馆演唱会2011【41.62G】1080P蓝光原盘

1080P演唱会截图:
1.jpg
2.jpg

3.jpg

4.jpg

5.jpg

6.jpg

7.jpg

1080P演唱会剧情截图:


演唱会曲目介绍:
00004.jpeg

00007.jpeg

00012.jpeg

00013.jpeg
1. 张智霖《少一天都太短》
2. 张智霖《疯了吧想我吗》
3. 张智霖《黑色诱惑》
4. 张智霖《巨星之路》
5. 张智霖《你太善良》
6. 张智霖《爱情已死》
7. 张智霖《别要我放弃》
8. 张智霖《究竟海有几深》
9. 张智霖《相爱无梦》
10. 张智霖《怎会如此》
11. 张智霖《一生豪情一次+笑中有泪+分开了仍》
12. 张智霖《天梯》
13. 张智霖《淘汰》
14. 张智霖《想你》
15. 张智霖《我不在乎》
16. 张智霖《Get Together》
17. 张智霖《孩子先生》
18. 张智霖《曾经不知你好》
19. 张智霖&张柏芝《多谢关心》
20. 张智霖《新不了情》
21. 张智霖《如此这般想你》
22. 张智霖《未婚妻》
23. 张智霖《骨胶原》
24. 张智霖《反斗奇兵》
25. 张智霖《冧爆你》
26. 张智霖《恋上外星人》
27. 张智霖&许秋怡《现代爱情故事》
28. 张智霖《祝君好》

演唱会参数信息:

DISC INFO:

Disc Title:     张智霖<Chilam In Concert 我系外星人>香港红馆演唱会2011【41.62G】1080P蓝光原盘
Disc Size:      44,693,828,697 bytes
Protection:     AACS
BD-Java:        No
BDInfo:         0.5.8

PLAYLIST REPORT:

Name:                   00001.MPLS
Length:                 2:34:19.216 (h:m:s.ms)
Size:                   44,071,655,424 bytes
Total Bitrate:          38.08 Mbps

VIDEO:

Codec                   Bitrate             Description     
-----                   -------             -----------     
MPEG-4 AVC Video        24495 kbps          1080i / 29.970 fps / 16:9 / High Profile 4.1

AUDIO:

Codec                           Language        Bitrate         Description     
-----                           --------        -------         -----------     
LPCM Audio                      Chinese         4608 kbps       5.1 / 48 kHz / 4608 kbps / 16-bit
DTS-HD Master Audio             Chinese         6128 kbps       5.1 / 96 kHz / 6128 kbps / 24-bit (DTS Core: 5.1 / 48 kHz / 768 kbps / 24-bit)
Dolby Digital Audio             Chinese         640 kbps        5.1 / 48 kHz / 640 kbps
Dolby Digital Audio             Chinese         192 kbps        2.0 / 48 kHz / 192 kbps

SUBTITLES:

Codec                           Language        Bitrate         Description     
-----                           --------        -------         -----------     
Presentation Graphics           Chinese         17.886 kbps                     

FILES:

Name            Time In         Length          Size            Total Bitrate   
----            -------         ------          ----            -------------   
00007.M2TS      0:00:00.000     0:50:21.718     14,465,900,544  38,298         
00012.M2TS      0:50:21.718     0:18:32.978     5,309,859,840   38,167         
00013.M2TS      1:08:54.697     0:25:25.557     7,325,411,328   38,414         
00004.M2TS      1:34:20.254     0:59:58.962     16,970,483,712  37,723         

回复

使用道具 举报

 楼主| 秋风扫落叶 发表于 2016-11-10 12:28:43 | 显示全部楼层
本帖为密码帖 ,请输入密码 
回复 支持 反对

使用道具 举报

用心感悟人生 发表于 2017-1-9 12:55:13 | 显示全部楼层
纯顶~感谢分享资源。。。
回复 支持 反对

使用道具 举报

大寒尚有蝉 发表于 2017-1-26 21:53:36 | 显示全部楼层
马克                                                      
回复 支持 反对

使用道具 举报

墩阁居士 发表于 2017-2-7 18:00:41 | 显示全部楼层
感謝分享高清資源,但如何才能下载 欣赏呢。
回复 支持 反对

使用道具 举报

您需要登录后才可以回帖 登录 | 立即注册

本版积分规则

搜索
热搜: 1080

QQ|手机版| 主音网,众分享 ( 沪ICP备16014104号 )     

GMT+8, 2017-2-21 22:38

Powered by Discuz! X3.2

© 2001-2013 Comsenz Inc.

快速回复 返回顶部 返回列表